Thread: Player hängt sich auf View Single Post
New Member
 
Join Date:  Jul 2009
Posts:  9
#3 | Link | Posted 06-07-2011 Quote
Danke für die schnelle Antwort, hier einmal die angeforderte Liste

Code:
[Primärer Filtergraph]
0) - Bleach 99.avi
1) - AVI Splitter
2) - MP3 Decoder DMO
3) - KMP Video Codec
4) - KMP Audio Codec
5) - KMP Video Transform
6) - KMP Audio Transform(Copy)
7) - Video Mixing Renderer9(Windowed)
8) - Default DirectSound Device

[Video-Info]
Decoder -(XVID) KMP Video Codec(Xvid-libcodec.dll)
Format -Major Type: Video - Sub Type: YUY2
VideoInfo: YUY2 640X480, 16 bits
Format -Major Type: Video - Sub Type: YV12
VideoInfo: YV12 1024X-480, 12 bits

[Audio-Info]
Decoder -(0x55) MP3 Decoder DMO+(PCM)
Format -Major Type: Audio - Sub Type: PCM
WaveFormatEx: PCM(0x1), 48000 Hz, 16 Bits, 2 Ch

[Basis-Video-DSP]
Internal brightness: 100%

[Erweitertes Video-DSP]
+DeInterlace, Mode: ffmpeg deinterlace
+PostProcess
  -MPlayer
+PictureProperty(S/W Process)
  -LumGain: 133
  -LumOffset: 0
  -Gamma: 100
  -HUE: 0
  -Saturation: 64
+Video Plugin

[Audio-DSP]
+Pre amplification: Main: (100%)
+Auto Volume Control
+Audio Plugin

[Untertitel-Einstellungen]
+Draw Mode(Selected): Image
+Draw Mode(In use): On Overlay
+Text Rendering Method: Rasterizer
+Support HTML Tags(SMI)

[KMPlayer]
+Version: 3.0.0.1440(6.906.880, 12.04.2011 09:31:08)
+libcodec.dll: Exist(4.870.254, 01.12.2010 03:06:46)
+libmplay.dll: Exist(431.616, 14.07.2008 04:31:44)
+PProcDLL.dll: Exist(1.769.472, 25.02.2008 08:07:04)
+LibDTS.dll: Exist(178.174, 05.12.2008 09:42:20)
+liba52.dll: Exist(73.063, 05.12.2008 09:41:10)
+libfaad2.dll: Exist(335.155, 05.12.2008 09:37:06)
+libmad.dll: Exist(123.036, 05.12.2008 09:42:30)
+libmpeg2.dll: Exist(154.644, 05.12.2008 09:42:42)
+theora.dll: Exist(200.864, 05.12.2008 09:43:32)
+OggVorbis.dll: Exist(1.165.312, 25.02.2008 08:07:00)
+xviddll.dll: Exist(758.319, 05.12.2008 09:58:36)
+Old_QUARTZ.DLL: Exist(770.048, 25.02.2008 08:07:00)
+AboutDll.dll: Exist(105.472, 03.10.2005 07:12:18)
+DTView.dll: Exist(104.448, 25.02.2008 08:04:36)
+MPlayer.dll: Missed
+ImLoader.dll: Exist(856.064, 25.02.2008 08:05:22)


--------------------
[Datei-Info]
--------------------
I:\Serien\Bleach\Serie 01-XXX\Bleach 99.avi
  General
    Complete name : I:\Serien\Bleach\Serie 01-XXX\Bleach 99.avi
    Format : AVI
    Format/Info : Audio Video Interleave
    Format profile : OpenDML
    File size : 198 MiB
    Duration : 24mn 24s
    Overall bit rate : 1 131 Kbps
    Writing application : AVI-Mux GUI 1.17.7, Aug  8 2006  20:59:17
  Video #0
    ID : 0
    Format : MPEG-4 Visual
    Format profile : AdvancedSimple@L5
    Format settings, BVOP : Yes
    Format settings, QPel : No
    Format settings, GMC : No warppoints
    Format settings, Matrix : Default (H.263)
    Codec ID : XVID
    Codec ID/Hint : XviD
    Duration : 24mn 24s
    Bit rate : 1 000 Kbps
    Width : 640 pixels
    Height : 480 pixels
    Display aspect ratio : 4:3
    Frame rate : 23.976 fps
    Resolution : 24 bits
    Colorimetry : 4:2:0
    Scan type : Progressive
    Bits/(Pixel*Frame) : 0.136
    Stream size : 175 MiB (88%)
    Writing library : XviD 1.2.0.dev47 (UTC 2006-11-01)
  Audio #1
    ID : 1
    Format : MPEG Audio
    Format version : Version 1
    Format profile : Layer 3
    Codec ID : 55
    Codec ID/Hint : MP3
    Duration : 24mn 24s
    Bit rate mode : Constant
    Bit rate : 128 Kbps
    Channel(s) : 2 channels
    Sampling rate : 48.0 KHz
    Resolution : 16 bits
    Stream size : 22.3 MiB (11%)
    Alignment : Aligned on interleaves
    Interleave, duration : 762 ms (18.27 video frames)
    Interleave, preload duration : 216 ms
    Title : Bleach 99
    Writing library : LAME3.98r
    Encoding settings : -m j -V 4 -q 2 -lowpass 17 -b 128


--------------------
[System-Info]
--------------------
CPU 0: 2261MHz, Intel(R) Core(TM)2 Duo CPU     P8400  @ 2.26GHz, x86 Family 6 Model 23 Stepping 6
CPU 1: 2261MHz, Intel(R) Core(TM)2 Duo CPU     P8400  @ 2.26GHz, x86 Family 6 Model 23 Stepping 6
OS: Windows NT Professional(Version 6.1 Build 7601) Service Pack 1
Video: ATI Mobility Radeon HD 3400 Series

DirectX: 9.0c(4.09.00.0904)
Memory: All: 2.097.152 KB, Available: 1.858.852 KB, Used: 11%
CodePage: 1252, Charset:1
Instruction: MMX MMX2 SSE SSE2 SSE3 64Bits 

[System Process]
System
smss.exe
csrss.exe
wininit.exe
csrss.exe
services.exe
lsass.exe
lsm.exe
winlogon.exe
svchost.exe
svchost.exe
GDScan.exe
AVKWCtl.exe
atiesrxx.exe
svchost.exe
svchost.exe
svchost.exe
audiodg.exe
svchost.exe
svchost.exe
svchost.exe
atieclxx.exe
spoolsv.exe
taskhost.exe
dwm.exe
explorer.exe
AVKProxy.exe
AVKService.exe
dsetime.exe
svchost.exe
svchost.exe
TuneUpUtilitiesService32.exe
WLIDSVC.EXE
VMCService.exe
WLIDSVCM.EXE
TuneUpUtilitiesApp32.exe
RtHDVCpl.exe
AVKTray.exe
GDFirewallTray.exe
WmiPrvSE.exe
GDFwSvc.exe
svchost.exe
wmpnetwk.exe
KMPlayer.exe
firefox.exe
IAStorDataMgrSvc.exe
sppsvc.exe
svchost.exe
Auf meinem anderen PC läuft es bei Win7 64bit SP1ohne Probleme,
sprich der Player friert nicht ein.
Deshalb konnte ich auch das Antivirusprogramm ausschließen und Tuneup , aber vielleicht hast du noch ne andere Idee