Thread: 3D subtitles feature not working View Single Post
Pantuflo's Avatar
Local Service Master
 
Join Date:  Feb 2006
Location:  Spain
Posts:  6,007
#3 | Link | Posted 03-26-2012 Quote
Quote:
Originally Posted by xrokos View Post
This feature works perfect with xvid files, it doesn't work with mkv files.
That's because you need to enable the KMP Video Transform Filter (it is disabled by default in some mkv files). To always enable it: Preferences (F2) -> Video processing -> General tab, select Condition -> Always use.

Also, for now subtitles must be drawn to image: right-click -> Subtitles -> Draw to image or draw to overlay. It won't work if you use VMR9 or EVR + Subtitles -> Draw to VMR Surface.

Test example (mp4 + srt subtitles file):



Code:
[Primary Filtergraph]
0) - KMP MOV/MP4 Source
1) - KMP Audio Codec
2) - KMP Video Codec
3) - KMP Video Transform
4) - KMP Audio Transform(Copy)
5) - Video Mixing Renderer9(Renderless)
6) - Default DirectSound Device

[Video Info]
Decoder - (MPEG2) KMP Video Codec(AVC1-libcodec.dll)
Format - Major Type: Video - Sub Type: YUY2
VideoInfo2: YUY2 640X360, 16 bits
Format - Major Type: Video - Sub Type: YV12
VideoInfo2: YV12 768X-360, 12 bits

[Audio Info]
Decoder - (0xFF) KMP Audio Codec(AAC 2-libcodec.dll)
Format - Major Type: Audio - Sub Type: PCM
WaveFormatEx: PCM(0x1), 44100 Hz, 16 Bits, 2 Ch

[Basic Video DSP]
Internal brightness: 100%

[Advanced Video DSP]
+Video Plugin

[Audio DSP]
+Pre amplification: Main: (100%)
+Auto Volume Control
+3D Effect: 5000
+Audio Plugin

[Subtitle Settings]
+Draw Mode(Selected): Overlay
+Draw Mode(In use): On Image
+Text Rendering Method: Rasterizer
+Support HTML Tags(SMI)

[KMPlayer]
+Version: 3.2.0.18(7.618.136, 26/03/2012 4:35:58)
+libcodec.dll: (2.945.536, 21/02/2012 11:27:38)
+libmplay.dll: (420.864, 21/02/2012 11:27:40)
+PProcDLL.dll: 1.0.0.1(1.769.472, 25/02/2008 8:07:04)
+LibDTS.dll: (178.174, 05/12/2008 9:42:20)
+liba52.dll: (73.063, 05/12/2008 9:41:10)
+libfaad2.dll: (335.155, 05/12/2008 9:37:06)
+libmad.dll: (123.036, 05/12/2008 9:42:30)
+libmpeg2.dll: (154.644, 05/12/2008 9:42:42)
+theora.dll: (200.864, 05/12/2008 9:43:32)
+OggVorbis.dll: (1.165.312, 25/02/2008 8:07:00)
+xviddll.dll: (758.319, 05/12/2008 9:58:36)
+Old_QUARTZ.DLL: 6.01.05.0319(770.048, 25/02/2008 8:07:00)
+AboutDll.dll: (105.472, 03/10/2005 7:12:18)
+DTView.dll: (98.304, 21/02/2012 11:27:36)
+ImLoader.dll: (856.064, 25/02/2008 8:05:22)
+MediaInfo.dll: 0.7.53.0(3.012.720, 12/03/2012 3:27:42)
+KMPAlbumArt.dll: 2009, 1, 5, 0(2.400.256, 05/01/2009 20:33:48)
+logo\KMP_Album_Art.swf: (1.159.717, 19/03/2012 1:42:00)


--------------------
[File Info]
--------------------
H:\tests\Excellent Sony Bravia Asahiyama Zoo Original Side by Side Stereoscopic 3D Demo Very Rare yt3d.mp4
  General
    Complete name : H:\Documents\KMPmedia\tests\Excellent Sony Bravia Asahiyama Zoo Original Side by Side Stereoscopic 3D Demo Very Rare yt3d.mp4
    Format : MPEG-4
    Format profile : Base Media / Version 2
    Codec ID : mp42
    File size : 12.2 MiB
    Duration : 2mn 27s
    Overall bit rate mode : Variable
    Overall bit rate : 694 Kbps
    Encoded date : UTC 2011-05-07 14:36:21
    Tagged date : UTC 2011-05-07 14:36:21
    gsst : 0
    gstd : 147800
    gssd : B400F746BMH1332765490737724
    gshh : o-o.preferred.tiws-par1.v24.lscache7.c.youtube.com
  Video #1
    ID : 1
    Format : AVC
    Format/Info : Advanced Video Codec
    Format profile : Baseline@L3.0
    Format settings, CABAC : No
    Format settings, ReFrames : 1 frame
    Format settings, GOP : M=1, N=30
    Codec ID : avc1
    Codec ID/Info : Advanced Video Coding
    Duration : 2mn 27s
    Bit rate : 596 Kbps
    Maximum bit rate : 1 727 Kbps
    Width : 640 pixels
    Height : 360 pixels
    Display aspect ratio : 16:9
    Frame rate mode : Variable
    Frame rate : 30.000 fps
    Minimum frame rate : 29.412 fps
    Maximum frame rate : 30.303 fps
    Color space : YUV
    Chroma subsampling : 4:2:0
    Bit depth : 8 bits
    Scan type : Progressive
    Bits/(Pixel*Frame) : 0.086
    Stream size : 10.5 MiB (86%)
    Tagged date : UTC 2011-05-07 14:36:23
  Audio #2
    ID : 2
    Format : AAC
    Format/Info : Advanced Audio Codec
    Format profile : LC
    Codec ID : 40
    Duration : 2mn 27s
    Bit rate mode : Variable
    Bit rate : 92.6 Kbps
    Maximum bit rate : 143 Kbps
    Channel(s) : 2 channels
    Channel positions : Front: L R
    Sampling rate : 44.1 KHz
    Compression mode : Lossy
    Stream size : 1.63 MiB (13%)
    Title : (C) 2007 Google Inc. v08.13.2007.
    Encoded date : UTC 2011-05-07 14:36:22
    Tagged date : UTC 2011-05-07 14:36:23