Thread: Problema para pasar de un minuto a otro en DVD´s View Single Post
New Member
 
Join Date:  Jul 2010
Posts:  5
#6 | Link | Posted 09-25-2010 Quote
Code:
[Filtergraph primario]
0) - KMP Matroska Reader
1) - KMP Audio Codec
2) - KMP Video Codec
3) - KMP Audio Transform(Copy)
4) - Enhanced Video Renderer
5) - Default DirectSound Device

[Info Vídeo]
Decodificador -(MPEG2) KMP Video Codec(AVC1-libcodec.dll)
Formato -Major Type: Video - Sub Type: YUY2
VideoInfo2: YUY2 1920X-816, 16 bits

[Info Audio]
Decodificador -(0x8) KMP Audio Codec(DTS(Digital Theater Systems)-LibDTS.dll)
Formato -Major Type: Audio - Sub Type: PCM
WaveFormatEx: PCM(0x1), 48000 Hz, 16 Bits, 2 Ch

[Procesamiento básico de Vídeo]
Internal brightness: 115%

[Procesamiento avanzado de Vídeo]
+PictureProperty(S/W Process)
  -LumGain: 128
  -LumOffset: 0
  -Gamma: 100
  -HUE: 0
  -Saturation: 64
+Video Plugin

[Procesamiento de Audio]
+Pre amplification: Main: (100%)
+Auto Volume Control
+Audio Plugin

[Configuración de subtítulos]
+Draw Mode(Selected): Overlay
+Draw Mode(In use): On Overlay
+Text Rendering Method: Rasterizer
+Support HTML Tags(SMI)

[The KMPlayer]
+Version: 2.9.4.1437(6.359.552, 31/05/2010 22:42:22)
+libcodec.dll: Exist(6.028.819, 12/05/2010 4:16:44)
+libmplay.dll: Exist(431.616, 13/07/2008 23:31:44)
+PProcDLL.dll: Exist(1.769.472, 25/02/2008 3:07:04)
+LibDTS.dll: Exist(178.174, 05/12/2008 4:42:20)
+liba52.dll: Exist(73.063, 05/12/2008 4:41:10)
+libfaad2.dll: Exist(335.155, 05/12/2008 4:37:06)
+libmad.dll: Exist(123.036, 05/12/2008 4:42:30)
+libmpeg2.dll: Exist(154.644, 05/12/2008 4:42:42)
+theora.dll: Exist(200.864, 05/12/2008 4:43:32)
+OggVorbis.dll: Exist(1.165.312, 25/02/2008 3:07:00)
+xviddll.dll: Exist(758.319, 05/12/2008 4:58:36)
+Old_QUARTZ.DLL: Exist(770.048, 25/02/2008 3:07:00)
+AboutDll.dll: Exist(105.472, 03/10/2005 2:12:18)
+DTView.dll: Exist(104.448, 25/02/2008 3:04:36)
+MPlayer.dll: Missed
+ImLoader.dll: Exist(856.064, 25/02/2008 3:05:22)


--------------------
[Información de archivo]
--------------------
C:\Documents and Settings\Administrador\Mis documentos\Mipony\IM2.1080p.x264-Japhson.mkv.part01\Iron.Man.2.2010.1080p.BluRay.x264-Japhson.mkv
  General
    Complete name : C:\Documents and Settings\Administrador\Mis documentos\Mipony\IM2.1080p.x264-Japhson.mkv.part01\Iron.Man.2.2010.1080p.BluRay.x264-Japhson.mkv
    Format : Matroska
    File size : 8.74 GiB
    Duration : 2h 4mn
    Overall bit rate : 10.0 Mbps
    Encoded date : UTC 2010-09-08 23:56:59
    Writing application : mkvmerge v3.3.0 ('Language') built on Mar 24 2010 14:59:24
    Writing library : libebml v0.8.0 + libmatroska v0.9.0
  Video #1
    ID : 1
    Format : AVC
    Format/Info : Advanced Video Codec
    Format profile : High@L4.1
    Format settings, CABAC : Yes
    Format settings, ReFrames : 5 frames
    Muxing mode : Container profile=Unknown@4.1
    Codec ID : V_MPEG4/ISO/AVC
    Duration : 2h 4mn
    Bit rate : 8 315 Kbps
    Nominal bit rate : 8 516 Kbps
    Width : 1 920 pixels
    Height : 816 pixels
    Display aspect ratio : 2.35:1
    Frame rate : 23.976 fps
    Resolution : 24 bits
    Colorimetry : 4:2:0
    Scan type : Progressive
    Bits/(Pixel*Frame) : 0.221
    Stream size : 7.24 GiB (83%)
    Writing library : x264 core 104 r1703 cd21d05
    Encoding settings : cabac=1 / ref=5 / deblock=1:-1:-1 / analyse=0x3:0x113 / me=umh / subme=7 / psy=1 / psy_rd=1.00:0.00 / mixed_ref=1 / me_range=16 / chroma_me=1 / trellis=1 / 8x8dct=1 / cqm=0 / deadzone=21,11 / fast_pskip=1 / chroma_qp_offset=-2 / threads=12 / sliced_threads=0 / nr=0 / decimate=1 / interlaced=0 / constrained_intra=0 / bframes=3 / b_pyramid=2 / b_adapt=2 / b_bias=0 / direct=3 / weightb=1 / open_gop=0 / weightp=2 / keyint=250 / keyint_min=23 / scenecut=40 / intra_refresh=0 / rc_lookahead=40 / rc=2pass / mbtree=1 / bitrate=8516 / ratetol=1.0 / qcomp=0.60 / qpmin=10 / qpmax=51 / qpstep=4 / cplxblur=20.0 / qblur=0.5 / vbv_maxrate=50000 / vbv_bufsize=50000 / ip_ratio=1.40 / aq=1:1.00 / nal_hrd=none
    Language : English
  Audio #2
    ID : 2
    Format : DTS
    Format/Info : Digital Theater Systems
    Codec ID : A_DTS
    Duration : 2h 4mn
    Bit rate mode : Constant
    Bit rate : 1 510 Kbps
    Channel(s) : 6 channels
    Channel positions : Front: L C R, Surround: L R, LFE
    Sampling rate : 48.0 KHz
    Resolution : 16 bits
    Stream size : 1.32 GiB (15%)
    Language : English
  Text #3
    ID : 3
    Format : UTF-8
    Codec ID : S_TEXT/UTF8
    Codec ID/Info : UTF-8 Plain Text
    Language : English


--------------------
[Información del sistema]
--------------------
CPU 0: 3210MHz, AMD Phenom(tm) II X4 955 Processor, x86 Family 16 Model 4 Stepping 2
CPU 1: 3210MHz, AMD Phenom(tm) II X4 955 Processor, x86 Family 16 Model 4 Stepping 2
CPU 2: 3210MHz, AMD Phenom(tm) II X4 955 Processor, x86 Family 16 Model 4 Stepping 2
CPU 3: 3210MHz, AMD Phenom(tm) II X4 955 Processor, x86 Family 16 Model 4 Stepping 2
OS: Windows XP Professional(Version 5.1 Build 2600) Service Pack 3
Video: ATI Radeon HD 5700 Series

DirectX: 9.0c(4.09.00.0904)
Memory: All: 2.095.212 KB, Available: 1.093.328 KB, Used: 48%
CodePage: 1252, Charset:1
Instruction: MMX MMX2 SSE SSE2 SSE3 3DNOW 3DNOWEXT 64Bits 

[System Process]
System
smss.exe
csrss.exe
winlogon.exe
services.exe
lsass.exe
svchost.exe
svchost.exe
svchost.exe
svchost.exe
svchost.exe
explorer.exe
DAODx.exe
EPU.exe
clipx.exe
avp.exe
itype.exe
HydraGrd.exe
msnmsgr.exe
ctfmon.exe
avp.exe
jqs.exe
svchost.exe
MOM.exe
CCC.exe
wlcomm.exe
javaw.exe
opera.exe
KMPlayer.exe
Te cuento que también tiene problemas con cualquier video común, es como que aparecen desfases de los pixeles en algunos momentos... y con los videos en HD si miras bien no tienen la misma definición que antes, se notan como rayas verticales en la imagen,osea como si se viera la separación de pixeles verticalmente, casi imperceptibles, hay que acercase mucho para verlas, pero antes no estaban, y obviamente restan calidad a los videos.

Gracias desde ya loco!!!!

Un Abrazo!