KMPlayerㅣForum
Korean Download Skins Testimonials User Map RSS
Post problems you have when using kmp.
View First Unread   Thread Tools Linear ModeHybrid ModeThreaded Mode
New Member
 
Join Date:  Aug 2008
Posts:  14
#1 | Link | m2ts sharpened image, Posted 09-24-2010 Quote
I Have Radeon 5570 with 10.9 catalyst driver and KMP 3.0.0.1438
Windows media palyer palys m2ts files from sony handycam smooth and with great quality
but with KMP (&DXVA working) files are played but the picture appears a little sharpened (like pixeles are seperated in every horizontal line with other lines) especially when camera is moving fast (but not in WMP). I tryed every combination of filters and even used ATI decoders (which were available in catalyst 10.6 and no more in 10.9!!!)
Pantuflo's Avatar
Local Service Master
 
Join Date:  Feb 2006
Location:  Spain
Posts:  6,007
#2 | Link | Posted 09-26-2010 Quote
Try changing the video renderer to:

Right-click -> Video Advanced -> Video renderer -> VMR9 Renderless (you can better reset the configuration before).

If it does not work, press Ctrl+tab while playing and then paste here the obtained report.
New Member
 
Join Date:  Aug 2008
Posts:  14
#3 | Link | Posted 10-02-2010 Quote
Thank you here is Ctrl+Tab info:
And I have Directx11 as dxdiag tells.
VMR9 Renderless plays video slow! looking to have frame drop.

-----------------------------------------------
Code:
Primary Filtergraph]
0) - KMP Async Reader(00051.MTS)
1) - Gabest MPEG2(TS) Splitter
2) - KMP Audio Codec
3) - KMP Video Codec
4) - KMP Audio Transform(Copy)
5) - Enhanced Video Renderer
6) - Default DirectSound Device

[Video Info]
Decoder - (MPEG2) KMP Video Codec(AVC1-DXVA-libcodec.dll)
Format - Major Type: Video - Sub Type: YUY2
VideoInfo2: YUY2 1440X1080, 16 bits

[Audio Info]
Decoder - (0x2000) KMP Audio Codec(AC3(Dolby Digital)-liba52.dll)
Format - Major Type: Audio - Sub Type: PCM
WaveFormatEx: PCM(0x1), 48000 Hz, 16 Bits, 2 Ch

[Basic Video DSP]
Internal brightness: 100%

[Advanced Video DSP]
+Video Plugin

[Audio DSP]
+Pre amplification: Main: (100%)
+Auto Volume Control
+Audio Plugin

[Subtitle Settings]
+Draw Mode(Selected): VMR
+Draw Mode(In use): On Overlay
+Text Rendering Method: Rasterizer
+Support HTML Tags(SMI)

[KMPlayer]
+Version: 3.0.0.1438(6,384,640, 15/09/2010 03:31:34 ق.ظ)
+libcodec.dll: Exist(4,870,254, 09/09/2010 12:44:36 ب.ظ)
+libmplay.dll: Exist(431,616, 14/07/2008 06:01:44 ق.ظ)
+PProcDLL.dll: Exist(1,769,472, 25/02/2008 09:37:04 ق.ظ)
+LibDTS.dll: Exist(178,174, 05/12/2008 11:12:20 ق.ظ)
+liba52.dll: Exist(73,063, 05/12/2008 11:11:10 ق.ظ)
+libfaad2.dll: Exist(335,155, 05/12/2008 11:07:06 ق.ظ)
+libmad.dll: Exist(123,036, 05/12/2008 11:12:30 ق.ظ)
+libmpeg2.dll: Exist(154,644, 05/12/2008 11:12:42 ق.ظ)
+theora.dll: Exist(200,864, 05/12/2008 11:13:32 ق.ظ)
+OggVorbis.dll: Exist(1,165,312, 25/02/2008 09:37:00 ق.ظ)
+xviddll.dll: Exist(758,319, 05/12/2008 11:28:36 ق.ظ)
+Old_QUARTZ.DLL: Exist(770,048, 25/02/2008 09:37:00 ق.ظ)
+AboutDll.dll: Exist(105,472, 03/10/2005 08:42:18 ق.ظ)
+DTView.dll: Exist(104,448, 25/02/2008 09:34:36 ق.ظ)
+MPlayer.dll: Missed
+ImLoader.dll: Exist(856,064, 25/02/2008 09:35:22 ق.ظ)

Format : BDAV
    Format/Info : Blu-ray Video
    File size : 220 MiB
    Duration : 1mn 53s
    Overall bit rate : 16.2 Mbps
    Maximum Overall bit rate : 18.0 Mbps
  Video #4113
    ID : 4113 (0x1011)
    Menu ID : 1 (0x1)
    Format : AVC
    Format/Info : Advanced Video Codec
    Format profile : Main@L4.0
    Format settings, CABAC : Yes
    Format settings, ReFrames : 2 frames
    Duration : 1mn 53s
    Bit rate : 15.1 Mbps
    Width : 1 440 pixels
    Height : 1 080 pixels
    Display aspect ratio : 16:9
    Frame rate : 25.000 fps
    Resolution : 24 bits
    Colorimetry : 4:2:0
    Scan type : Interlaced
    Scan order : Top Field First
    Bits/(Pixel*Frame) : 0.388
    Stream size : 205 MiB (93%)
  Audio #4352
    ID : 4352 (0x1100)
    Menu ID : 1 (0x1)
    Format : AC-3
    Format/Info : Audio Coding 3
    Duration : 1mn 53s
    Bit rate mode : Constant
    Bit rate : 448 Kbps
    Channel(s) : 6 channels
    Channel positions : Front: L C R, Surround: L R, LFE
    Sampling rate : 48.0 KHz
    Video delay : -80ms
    Stream size : 6.08 MiB (3%)

--------------------
CPU 0: 3014MHz, Intel(R) Pentium(R) 4 CPU 3.00GHz, x86 Family 15 Model 4 Stepping 3
CPU 1: 3014MHz, Intel(R) Pentium(R) 4 CPU 3.00GHz, x86 Family 15 Model 4 Stepping 3
OS: Windows NT Professional(Version 6.1 Build 7600) 
Video: ATI Radeon HD 5500 Series

DirectX: 9.0c(4.09.00.0904)
Memory: All: 2,096,696 KB, Available: 1,425,520 KB, Used: 32%
CodePage: 1256, Charset:1
Instruction: MMX MMX2 SSE SSE2 SSE3 64Bits
Last edited by bastik : 10-03-2010 at 01:51 AM. Reason: code tags
bastik's Avatar
German moderator
 
Join Date:  May 2008
Location:  Germany
Posts:  3,993
#4 | Link | Posted 10-03-2010 Quote
Yes, KMPlayer won't detect anything newer as DirectX 9.0c. That's not an problem.

You can use the system decoder for AVC. Microsoft DTV-DVD Video Decoder.
Please read this before you post and use the Forums Search. Read other sticky threads, too. Thank you.
--
Impurities make things work and sometimes unique.
Legendary Member
 
Join Date:  Apr 2018
Posts:  419,049
#5 | Link | Posted 06-25-2018 Quote
dm39718dm39718dm39718dm39718dm39718dm39718dm39718dm39718dm39718dm39718dm39718dm39718dm39718dm39718dm39718dm39718dm39718dm39718dm39718dm39718dm39718
dm39718dm39718dm39718dm39718dm39718dm39718dm39718dm39718dm39718dm39718dm39718dm39718dm39718dm39718dm39718dm39718dm39718dm39718dm39718dm39718
dm39718dm39718dm39718dm39718dm39718dm39718dm39718dm39718dm39718dm39718dm39718dm39718dm39718dm39718dm39718dm39718dm39718dm39718dm39718dm39718
dm39718dm39718dm39718dm39718dm39718dm39718dm39718dm39718dm39718dm39718dm39718dm39718dm39718dm39718dm39718dm39718dm39718dm39718dm39718dm39718
dm39718dm39718dm39718dm39718dm39718dm39718dm39718dm39718dm39718dm39718dm39718dm39718dm39718dm39718dm39718dm39718dm39718dm39718dm39718dm39718
dm39718dm39718dm39718dm39718dm39718dm39718dm39718dm39718dm39718dm39718dm39718dm39718dm39718dm39718dm39718dm39718dm39718dm39718dm39718dm39718
dm39718dm39718dm39718dm39718dm39718dm39718dm39718dm39718dm39718dm39718dm39718dm39718dm39718dm39718dm39718dm39718dm39718dm39718dm39718dm39718
dm39718dm39718dm39718dm39718dm39718dm39718dm39718dm39718dm39718dm39718dm39718dm39718dm39718dm39718dm39718dm39718dm39718dm39718dm39718dm39718
dm39718dm39718dm39718dm39718dm39718dm39718dm39718dm39718dm39718dm39718dm39718dm39718dm39718dm39718dm39718dm39718dm39718dm39718dm39718dm39718
dm39718dm39718dm39718dm39718dm39718dm39718dm39718dm39718dm39718dm39718dm39718dm39718dm39718dm39718dm39718dm39718dm39718dm39718dm39718dm39718
dm39718dm39718dm39718dm39718dm39718dm39718dm39718dm39718dm39718dm39718dm39718dm39718dm39718dm39718dm39718dm39718dm39718dm39718dm39718dm39718
dm39718
Thread Tools
Display Modes
Posting Rules
You may not post new threads
You may not post replies
You may not post attachments
You may not edit your posts

vB code is On
Smilies are On
[IMG] code is On
HTML code is Off
Supported by PANDORA.TV
All times are GMT +9. The time now is 07:23 AM.
Contact Us - The KMPlayer - Archive - Top