KMPlayerㅣForum
Korean Download Skins Testimonials User Map RSS
Post problems you have when using kmp.
Page 1 of 2: 1 2 >
View First Unread   Thread Tools Linear ModeHybrid ModeThreaded Mode
New Member
 
Join Date:  Sep 2010
Posts:  1
#1 | Link | Jumping through .h264 videos, Posted 09-26-2010 Quote
I have no problem playing .h264 files, but when I use the arrows or jump to a certain part of the video, there is about a second or two of lag. With other type of files, it jumps instantly. Is there a way to fix this?
Pantuflo's Avatar
Local Service Master
 
Join Date:  Feb 2006
Location:  Spain
Posts:  6,007
#2 | Link | Posted 09-26-2010 Quote
Please press Ctrl+Tab while playing that file and then paste here the obtained report.
muttleybr's Avatar
Muttley
 
Join Date:  Sep 2009
Location:  Brazil
Posts:  6
#3 | Link | Posted 12-27-2010 Quote
Hello there! I have this issue too... I'm using KMPlayer 3.0.0.1439 at Windows 7 64 bits and my video card is onboard (ATI Radeon HD 4290). Here's the movie report:

Code:
[Primary Filtergraph]
0) - KMP MOV/MP4 Source
1) - KMP Audio Codec
2) - KMP Video Codec
3) - KMP Audio Transform(Copy)
4) - Video Mixing Renderer9(Windowed)
5) - Default DirectSound Device

[Video Info]
Decoder - (MPEG2) KMP Video Codec(AVC1-libcodec.dll)
Format - Major Type: Video - Sub Type: YV12
VideoInfo2: YV12 1536X-720, 12 bits

[Audio Info]
Decoder - (0xFF) KMP Audio Codec(AAC 2-libfaad2.dll)
Format - Major Type: Audio - Sub Type: PCM
WaveFormatEx: ExtPCM(0xFFFE), 48000 Hz, 16 Bits, 3 Ch

[Basic Video DSP]
Internal brightness: 100%

[Advanced Video DSP]
+Video Plugin

[Audio DSP]
+Pre amplification: Main: (100%)
+Auto Volume Control
+Audio Plugin

[Subtitle Settings]
+Draw Mode(Selected): Image
+Draw Mode(In use): On Overlay
+Text Rendering Method: Rasterizer
+Support HTML Tags(SMI)

[KMPlayer]
+Version: 3.0.0.1439(6.910.976, 03/11/2010 06:05:54)
+libcodec.dll: Exist(4.870.254, 17/10/2010 23:00:06)
+libmplay.dll: Exist(431.616, 14/07/2008 00:31:44)
+PProcDLL.dll: Exist(1.769.472, 25/02/2008 04:07:04)
+LibDTS.dll: Exist(178.174, 05/12/2008 05:42:20)
+liba52.dll: Exist(73.063, 05/12/2008 05:41:10)
+libfaad2.dll: Exist(335.155, 05/12/2008 05:37:06)
+libmad.dll: Exist(123.036, 05/12/2008 05:42:30)
+libmpeg2.dll: Exist(154.644, 05/12/2008 05:42:42)
+theora.dll: Exist(200.864, 05/12/2008 05:43:32)
+OggVorbis.dll: Exist(1.165.312, 25/02/2008 04:07:00)
+xviddll.dll: Exist(758.319, 05/12/2008 05:58:36)
+Old_QUARTZ.DLL: Exist(770.048, 25/02/2008 04:07:00)
+AboutDll.dll: Exist(105.472, 03/10/2005 03:12:18)
+DTView.dll: Exist(104.448, 25/02/2008 04:04:36)
+MPlayer.dll: Missed
+ImLoader.dll: Exist(856.064, 25/02/2008 04:05:22)


--------------------
[File Info]
--------------------
J:\tim.mp4
  General
    Complete name : J:\tim.mp4
    Format : MPEG-4
    Format profile : QuickTime
    Codec ID : qt  
    File size : 879 MiB
    Duration : 37mn 13s
    Overall bit rate : 3 300 Kbps
    Movie name : TIM
    Performer : TIM
    Producer : TIM
    Genre : Pop
    Encoded date : UTC 2009-12-18 04:00:00
    Tagged date : UTC 2009-12-18 18:06:28
    Writing library : Apple QuickTime
    Copyright : TIM
    Cover : Yes
    com.apple.finalcutstudio.media.uuid : 2B6AC7C1-3224-449E-AAA2-50A44C056BE7
    tvsh : TIM
  Video #1
    ID : 1
    Format : AVC
    Format/Info : Advanced Video Codec
    Format profile : Main@L3.2
    Format settings, CABAC : No
    Format settings, ReFrames : 2 frames
    Codec ID : avc1
    Codec ID/Info : Advanced Video Coding
    Duration : 37mn 13s
    Bit rate mode : Variable
    Bit rate : 3 058 Kbps
    Width : 1 280 pixels
    Height : 720 pixels
    Display aspect ratio : 16:9
    Frame rate mode : Constant
    Frame rate : 59.940 fps
    Resolution : 24 bits
    Colorimetry : 4:2:0
    Scan type : Progressive
    Bits/(Pixel*Frame) : 0.055
    Stream size : 814 MiB (93%)
    Encoded date : UTC 2009-12-18 02:33:22
    Tagged date : UTC 2009-12-18 02:35:21
    colour_primaries : BT.709-5, BT.1361, IEC 61966-2-4, SMPTE RP177
    transfer_characteristics : BT.709-5, BT.1361
    matrix_coefficients : BT.709-5, BT.1361, IEC 61966-2-4 709, SMPTE RP177
  Audio #2
    ID : 2
    Format : AAC
    Format/Info : Advanced Audio Codec
    Format version : Version 4
    Format profile : LC
    Format settings, SBR : No
    Codec ID : 40
    Duration : 37mn 13s
    Bit rate mode : Constant
    Bit rate : 128 Kbps
    Channel(s) : 2 channels
    Channel positions : L R
    Sampling rate : 48.0 KHz
    Resolution : 16 bits
    Stream size : 34.1 MiB (4%)
    Encoded date : UTC 2009-12-18 02:33:22
    Tagged date : UTC 2009-12-18 02:35:21


--------------------
[System Info]
--------------------
CPU 0: 3411MHz, AMD Phenom(tm) II X4 965 Processor, AMD64 Family 16 Model 4 Stepping 3
CPU 1: 3412MHz, AMD Phenom(tm) II X4 965 Processor, AMD64 Family 16 Model 4 Stepping 3
CPU 2: 3412MHz, AMD Phenom(tm) II X4 965 Processor, AMD64 Family 16 Model 4 Stepping 3
CPU 3: 3412MHz, AMD Phenom(tm) II X4 965 Processor, AMD64 Family 16 Model 4 Stepping 3
OS: Windows NT Professional(Version 6.1 Build 7600) 
Video: ATI Radeon HD 4290

DirectX: 9.0c(4.09.00.0904)
Memory: All: 3.930.296 KB, Available: 2.557.804 KB, Used: 35%
CodePage: 1252, Charset:1
Instruction: MMX MMX2 SSE SSE2 SSE3 3DNOW 3DNOWEXT 64Bits 

[System Process]
System
smss.exe
csrss.exe
wininit.exe
csrss.exe
services.exe
winlogon.exe
lsass.exe
lsm.exe
svchost.exe
svchost.exe
MsMpEng.exe
atiesrxx.exe
svchost.exe
svchost.exe
svchost.exe
svchost.exe
atieclxx.exe
svchost.exe
spoolsv.exe
svchost.exe
NisSrv.exe
WUDFHost.exe
taskeng.exe
dwm.exe
taskhost.exe
DAODx.exe
explorer.exe
RAVCpl64.exe
msseces.exe
sidebar.exe
MOM.exe
nusb3mon.exe
jusched.exe
CCC.exe
SearchIndexer.exe
wmpnetwk.exe
svchost.exe
firefox.exe
audiodg.exe
taskhost.exe
plugin-container.exe
sppsvc.exe
notepad.exe
KMPlayer.exe
Last edited by bastik : 12-28-2010 at 06:24 PM. Reason: code tags
bastik's Avatar
German moderator
 
Join Date:  May 2008
Location:  Germany
Posts:  3,993
#4 | Link | Posted 12-28-2010 Quote
Change the video renderer and enable video transform filter.

Preferences (F2) > Video Processing > [General]
Always use

Preferences (F2) > Video Processing > [Renderer]
select EVR c/a
muttleybr's Avatar
Muttley
 
Join Date:  Sep 2009
Location:  Brazil
Posts:  6
#5 | Link | Posted 12-28-2010 Quote
Wow, now it's perfect! Thanks a lot, bastik!!
muttleybr's Avatar
Muttley
 
Join Date:  Sep 2009
Location:  Brazil
Posts:  6
#6 | Link | Posted 02-07-2011 Quote
Hey, hello, it's me again!

Everything is perfect with my H.264 videos, but now I've noticed that some always shows a horizontal green stripe at bottom and top of the video, even as full screen. With WMPlayer, there's no stripe. Is this normal?

Thanks again!
Pantuflo's Avatar
Local Service Master
 
Join Date:  Feb 2006
Location:  Spain
Posts:  6,007
#7 | Link | Posted 02-07-2011 Quote
Please press Ctrl+Tab while playing that file and then paste here the obtained report.

(sorry to sound repetitive...)
muttleybr's Avatar
Muttley
 
Join Date:  Sep 2009
Location:  Brazil
Posts:  6
#8 | Link | Posted 02-07-2011 Quote
Quote:
Originally Posted by Pantuflo View Post
Please press Ctrl+Tab while playing that file and then paste here the obtained report.

(sorry to sound repetitive...)
No prob, I always forget too!

Code:
[Primary Filtergraph]
0) - KMP MOV/MP4 Source
1) - KMP Audio Codec
2) - MPC - Video decoder
3) - KMP Video Transform
4) - KMP Audio Transform(Copy)
5) - Enhanced Video Renderer(C/A)
6) - Default DirectSound Device

[Video Info]
Decoder - (MPEG2) MPC - Video decoder
Format - Major Type: Video - Sub Type: YV12
VideoInfo2: YV12 960X720, 12 bits
Format - Major Type: Video - Sub Type: YUY2
VideoInfo2: YUY2 1024X-720, 16 bits

[Audio Info]
Decoder - (0xFF) KMP Audio Codec(AAC 2-libfaad2.dll)
Format - Major Type: Audio - Sub Type: PCM
WaveFormatEx: ExtPCM(0xFFFE), 48000 Hz, 16 Bits, 3 Ch

[Basic Video DSP]
Internal brightness: 100%

[Advanced Video DSP]
+Video Plugin

[Audio DSP]
+Pre amplification: Main: (100%)
+Auto Volume Control
+Audio Plugin

[Subtitle Settings]
+Draw Mode(Selected): Image
+Draw Mode(In use): On Image
+Text Rendering Method: Rasterizer
+Support HTML Tags(SMI)

[KMPlayer]
+Version: 3.0.0.1439(6.910.976, 03/11/2010 06:05:54)
+libcodec.dll: Exist(4.870.254, 17/10/2010 23:00:06)
+libmplay.dll: Exist(431.616, 14/07/2008 00:31:44)
+PProcDLL.dll: Exist(1.769.472, 25/02/2008 04:07:04)
+LibDTS.dll: Exist(178.174, 05/12/2008 05:42:20)
+liba52.dll: Exist(73.063, 05/12/2008 05:41:10)
+libfaad2.dll: Exist(335.155, 05/12/2008 05:37:06)
+libmad.dll: Exist(123.036, 05/12/2008 05:42:30)
+libmpeg2.dll: Exist(154.644, 05/12/2008 05:42:42)
+theora.dll: Exist(200.864, 05/12/2008 05:43:32)
+OggVorbis.dll: Exist(1.165.312, 25/02/2008 04:07:00)
+xviddll.dll: Exist(758.319, 05/12/2008 05:58:36)
+Old_QUARTZ.DLL: Exist(770.048, 25/02/2008 04:07:00)
+AboutDll.dll: Exist(105.472, 03/10/2005 03:12:18)
+DTView.dll: Exist(104.448, 25/02/2008 04:04:36)
+MPlayer.dll: Missed
+ImLoader.dll: Exist(856.064, 25/02/2008 04:05:22)


--------------------
[File Info]
--------------------
C:\speedy-s2-hd.mp4
  General
    Complete name : C:\speedy-s2-hd.mp4
    Format : MPEG-4
    Format profile : Base Media / Version 2
    Codec ID : mp42
    File size : 1.16 GiB
    Duration : 32mn 50s
    Overall bit rate : 5 064 Kbps
    Movie name : Speedy HD part 2
    Album : Speedy
    Part/Position : 1
    Part/Total : 2
    Track name/Position : 2
    Track name/Total : 9
    Performer : HD
    Genre : Comedy
    Encoded date : UTC 2010-07-09 05:00:00
    Tagged date : UTC 2010-07-09 22:00:04
    Copyright : Studio
    Cover : No
    iTunEXTC : mpaa|UNRATED|600|
    desc : "The sound of silence"
    stik : 0
    iTunMOVI : <?xml version="1.0" encoding="UTF-8"?> / <!DOCTYPE plist PUBLIC "-//Apple//DTD PLIST 1.0//EN" "http://www.apple.com/DTDs/PropertyList-1.0.dtd"> / <plist version="1.0"> / <dict> / 	<key>directors</key> / 	<array> / 		<dict> / 			<key>name</key> / 			<string>Paul Morris</string> / 		</dict> / 	</array> / 	<key>producers</key> / 	<array> / 		<dict> / 			<key>name</key> / 			<string>Paul Morris</string> / 		</dict> / 	</array> / </dict> / </plist>
    tvsh : speedy
    rtng : 4
  Video #1
    ID : 1
    Format : AVC
    Format/Info : Advanced Video Codec
    Format profile : Main@L3.1
    Format settings, CABAC : Yes
    Format settings, ReFrames : 2 frames
    Codec ID : avc1
    Codec ID/Info : Advanced Video Coding
    Duration : 32mn 50s
    Bit rate mode : Variable
    Bit rate : 4 803 Kbps
    Width : 960 pixels
    Height : 720 pixels
    Display aspect ratio : 16:9
    Original display aspect ratio : 16:9
    Frame rate mode : Constant
    Frame rate : 59.940 fps
    Standard : NTSC
    Resolution : 24 bits
    Colorimetry : 4:2:0
    Scan type : Progressive
    Bits/(Pixel*Frame) : 0.116
    Stream size : 1.10 GiB (95%)
    Encoded date : UTC 2010-07-09 18:31:20
    Tagged date : UTC 2010-07-09 18:31:20
    colour_primaries : BT.601-6 525, BT.1358 525, BT.1700 NTSC, SMPTE 170M
    transfer_characteristics : BT.601-6 525, BT.601-6 625, BT.1358 525, BT.1358 625, BT.1700 NTSC, SMPTE 170M
    matrix_coefficients : BT.601-6 525, BT.1358 525, BT.1700 NTSC, SMPTE 170M
  Audio #2
    ID : 2
    Format : AAC
    Format/Info : Advanced Audio Codec
    Format version : Version 4
    Format profile : LC
    Format settings, SBR : No
    Codec ID : 40
    Duration : 32mn 50s
    Bit rate mode : Constant
    Bit rate : 252 Kbps
    Nominal bit rate : 256 Kbps
    Channel(s) : 2 channels
    Channel positions : L R
    Sampling rate : 48.0 KHz
    Resolution : 16 bits
    Stream size : 59.1 MiB (5%)
    Encoded date : UTC 2010-07-09 18:31:20
    Tagged date : UTC 2010-07-09 18:31:20
  Text #3
    ID : 3
    Format : Apple text
    Codec ID : text
    Duration : 32mn 50s
    Bit rate mode : Variable
    Bit rate : 1 bps
    Stream size : 164 Bytes (0%)
    Encoded date : UTC 2010-07-09 18:31:20
    Tagged date : UTC 2010-07-09 18:31:20


--------------------
[System Info]
--------------------
CPU 0: 3411MHz, AMD Phenom(tm) II X4 965 Processor, AMD64 Family 16 Model 4 Stepping 3
CPU 1: 3412MHz, AMD Phenom(tm) II X4 965 Processor, AMD64 Family 16 Model 4 Stepping 3
CPU 2: 3412MHz, AMD Phenom(tm) II X4 965 Processor, AMD64 Family 16 Model 4 Stepping 3
CPU 3: 3412MHz, AMD Phenom(tm) II X4 965 Processor, AMD64 Family 16 Model 4 Stepping 3
OS: Windows NT Professional(Version 6.1 Build 7600) 
Video: ATI Radeon HD 4290

DirectX: 9.0c(4.09.00.0904)
Memory: All: 3.930.296 KB, Available: 2.636.524 KB, Used: 33%
CodePage: 1252, Charset:1
Instruction: MMX MMX2 SSE SSE2 SSE3 3DNOW 3DNOWEXT 64Bits 

[System Process]
System
smss.exe
csrss.exe
wininit.exe
csrss.exe
services.exe
lsass.exe
lsm.exe
winlogon.exe
svchost.exe
svchost.exe
MsMpEng.exe
atiesrxx.exe
svchost.exe
svchost.exe
svchost.exe
svchost.exe
svchost.exe
atieclxx.exe
spoolsv.exe
svchost.exe
svchost.exe
svchost.exe
svchost.exe
svchost.exe
WUDFHost.exe
NisSrv.exe
taskhost.exe
taskeng.exe
dwm.exe
explorer.exe
DAODx.exe
RAVCpl64.exe
msseces.exe
sidebar.exe
hpqtra08.exe
MOM.exe
nusb3mon.exe
jusched.exe
CCC.exe
NokiaMServer.exe
hpqste08.exe
hpqbam08.exe
hpqgpc01.exe
svchost.exe
firefox.exe
plugin-container.exe
notepad.exe
audiodg.exe
KMPlayer.exe
Legendary Member
 
Join Date:  Apr 2018
Posts:  362,485
#9 | Link | Posted 06-25-2018 Quote
dm39821dm39821dm39821dm39821dm39821dm39821dm39821dm39821dm39821dm39821dm39821dm39821dm39821dm39821dm39821dm39821dm39821dm39821dm39821dm39821dm39821
dm39821dm39821dm39821dm39821dm39821dm39821dm39821dm39821dm39821dm39821dm39821dm39821dm39821dm39821dm39821dm39821dm39821dm39821dm39821dm39821
dm39821dm39821dm39821dm39821dm39821dm39821dm39821dm39821dm39821dm39821dm39821dm39821dm39821dm39821dm39821dm39821dm39821dm39821dm39821dm39821
dm39821dm39821dm39821dm39821dm39821dm39821dm39821dm39821dm39821dm39821dm39821dm39821dm39821dm39821dm39821dm39821dm39821dm39821dm39821dm39821
dm39821dm39821dm39821dm39821dm39821dm39821dm39821dm39821dm39821dm39821dm39821dm39821dm39821dm39821dm39821dm39821dm39821dm39821dm39821dm39821
dm39821dm39821dm39821dm39821dm39821dm39821dm39821dm39821dm39821dm39821dm39821dm39821dm39821dm39821dm39821dm39821dm39821dm39821dm39821dm39821
dm39821dm39821dm39821dm39821dm39821dm39821dm39821dm39821dm39821dm39821dm39821dm39821dm39821dm39821dm39821dm39821dm39821dm39821dm39821dm39821
dm39821dm39821dm39821dm39821dm39821dm39821dm39821dm39821dm39821dm39821dm39821dm39821dm39821dm39821dm39821dm39821dm39821dm39821dm39821dm39821
dm39821dm39821dm39821dm39821dm39821dm39821dm39821dm39821dm39821dm39821dm39821dm39821dm39821dm39821dm39821dm39821dm39821dm39821dm39821dm39821
dm39821dm39821dm39821dm39821dm39821dm39821dm39821dm39821dm39821dm39821dm39821dm39821dm39821dm39821dm39821dm39821dm39821dm39821dm39821dm39821
dm39821dm39821dm39821dm39821dm39821dm39821dm39821dm39821dm39821dm39821dm39821dm39821dm39821dm39821dm39821dm39821dm39821dm39821dm39821dm39821
dm39821
Thread Tools
Display Modes
Posting Rules
You may not post new threads
You may not post replies
You may not post attachments
You may not edit your posts

vB code is On
Smilies are On
[IMG] code is On
HTML code is Off
Supported by PANDORA.TV
All times are GMT +9. The time now is 03:40 AM.
Contact Us - The KMPlayer - Archive - Top