KMPlayerㅣForum
Korean Download Skins Testimonials User Map RSS
View First Unread   Thread Tools Linear ModeHybrid ModeThreaded Mode
New Member
 
Join Date:  May 2011
Posts:  8
#1 | Link | Problemas de sincronizacion con mkv, Posted 05-18-2011 Quote
Buenas, soy nuevo en el foro. Hace muy poco descubrí este gran reproductor de video, y que realmente considero que es lo mejor que he usado. Ultimamente he descubierto que tengo problemas con los archivos mkv. Me explico; cuando reproduzco un avi con dos pistas de audio (Por ejemplo español e ingles) de vez en cuando me gusta pulsar la tecla que tengo configurada en el KMP para cambiar de español a ingles, y luego volver de nuevo al español. Pues bien, cuando hago esto el KMP con los avi se comporta correctamente, pero no me ocurre lo mismo con los archivos mkv. Con estos ultimos la imagen se paraliza durante medio segundo o mas, y al restablecerse el movimiento de la imagen queda desincronizado el video y el audio.

He probado ya un poco de todo. Quitando filtros internos y colocando externos, tocando el render, etc. Pero no doy con el tema.

Mi ordenador ya tiene sus 6 o 7 años. Tengo xp, 3.00 GHz de procesador, 1 GB de Ram y de Tarjeta grafica no tengo ni idea (Si os vale lo que viene el el administrador de dispositivos: Intel (R) 82865G Graphics Controller).

Gracias por adelantado
New Member
 
Join Date:  May 2011
Posts:  8
#2 | Link | Posted 05-18-2011 Quote
Perdon, olvide pegar estos datos que pedís:

Code:
[Filtergraph primario]
0) - KMP Matroska Reader
1) - AC3 Filter for DTS
2) - KMP Video Codec
3) - KMP Audio Codec
4) - Enhanced Video Renderer
5) - Default DirectSound Device

[Info Vídeo]
Decodificador -(MPEG2) KMP Video Codec(AVC1-libcodec.dll)
Formato -Major Type: Video - Sub Type: YUY2
VideoInfo2: YUY2 2048X-720, 16 bits

[Info Audio]
Decodificador -(0x8) AC3 Filter for DTS+(PCM)
Formato -Major Type: Audio - Sub Type: PCM
WaveFormatEx: PCM(0x1), 48000 Hz, 16 Bits, 2 Ch

[Procesamiento básico de Vídeo]
Internal brightness: 100%

[Procesamiento avanzado de Vídeo]
+Video Plugin

[Procesamiento de Audio]
+Pre amplification: Main: (170%)
+Equalizer, Mode: DirectX DMO
+3D Effect: 7000
+Audio Plugin

[Configuración de subtítulos]
+Draw Mode(Selected): Image
+Draw Mode(In use): On Overlay
+Text Rendering Method: Rasterizer
+Support HTML Tags(SMI)

[The KMPlayer]
+Version: 3.0.0.1439(6.910.976, 03/11/2010 10:05:54)
+libcodec.dll: Exist(4.870.254, 18/10/2010 3:00:06)
+libmplay.dll: Exist(431.616, 14/07/2008 4:31:44)
+PProcDLL.dll: Exist(1.769.472, 25/02/2008 8:07:04)
+LibDTS.dll: Exist(178.174, 05/12/2008 9:42:20)
+liba52.dll: Exist(73.063, 05/12/2008 9:41:10)
+libfaad2.dll: Exist(335.155, 05/12/2008 9:37:06)
+libmad.dll: Exist(123.036, 05/12/2008 9:42:30)
+libmpeg2.dll: Exist(154.644, 05/12/2008 9:42:42)
+theora.dll: Exist(200.864, 05/12/2008 9:43:32)
+OggVorbis.dll: Exist(1.165.312, 25/02/2008 8:07:00)
+xviddll.dll: Exist(758.319, 05/12/2008 9:58:36)
+Old_QUARTZ.DLL: Exist(770.048, 25/02/2008 8:07:00)
+AboutDll.dll: Exist(105.472, 03/10/2005 7:12:18)
+DTView.dll: Exist(104.448, 25/02/2008 8:04:36)
+MPlayer.dll: Missed
+ImLoader.dll: Exist(856.064, 25/02/2008 8:05:22)


--------------------
[Información de archivo]
--------------------
C:\Documents and Settings\Emilio\Escritorio\PPR.mkv
  General
    Complete name : C:\Documents and Settings\Emilio\Escritorio\PPR.mkv
    Format : Matroska
    File size : 5.18 GiB
    Duration : 1h 42mn
    Overall bit rate : 7 267 Kbps
    Encoded date : UTC 2010-10-30 05:13:05
    Writing application : mkvmerge v4.3.0 ('Escape from the Island') realizado en Sep  5 2010 10:30:51
    Writing library : libebml v1.0.0 + libmatroska v1.0.0
  Video #1
    ID : 1
    Format : AVC
    Format/Info : Advanced Video Codec
    Format profile : High@L4.1
    Format settings, CABAC : Yes
    Format settings, ReFrames : 9 frames
    Muxing mode : Container profile=Unknown@4.1
    Codec ID : V_MPEG4/ISO/AVC
    Duration : 1h 41mn
    Bit rate : 5 600 Kbps
    Nominal bit rate : 5 747 Kbps
    Width : 1 280 pixels
    Height : 720 pixels
    Display aspect ratio : 16:9
    Frame rate : 23.976 fps
    Resolution : 24 bits
    Colorimetry : 4:2:0
    Scan type : Progressive
    Bits/(Pixel*Frame) : 0.253
    Stream size : 3.99 GiB (77%)
    Writing library : x264 core 98 r1649 c54c47d
    Encoding settings : cabac=1 / ref=9 / deblock=1:-3:-3 / analyse=0x3:0x113 / me=esa / subme=9 / psy=1 / psy_rd=1.00:0.00 / mixed_ref=1 / me_range=32 / chroma_me=1 / trellis=1 / 8x8dct=1 / cqm=0 / deadzone=21,11 / fast_pskip=0 / chroma_qp_offset=-2 / threads=3 / sliced_threads=0 / nr=0 / decimate=0 / interlaced=0 / constrained_intra=0 / bframes=9 / b_pyramid=2 / b_adapt=1 / b_bias=0 / direct=1 / weightb=1 / weightp=2 / keyint=250 / keyint_min=25 / scenecut=40 / intra_refresh=0 / rc_lookahead=40 / rc=2pass / mbtree=1 / bitrate=5747 / ratetol=1.0 / qcomp=0.60 / qpmin=10 / qpmax=51 / qpstep=4 / cplxblur=20.0 / qblur=0.5 / vbv_maxrate=50000 / vbv_bufsize=50000 / ip_ratio=1.40 / aq=1:1.00 / nal_hrd=none
  Audio #2
    ID : 2
    Format : DTS
    Format/Info : Digital Theater Systems
    Codec ID : A_DTS
    Duration : 1h 42mn
    Bit rate mode : Constant
    Bit rate : 755 Kbps
    Channel(s) : 6 channels
    Channel positions : Front: L C R, Surround: L R, LFE
    Sampling rate : 48.0 KHz
    Resolution : 24 bits
    Stream size : 551 MiB (10%)
    Title : Español DTS
    Language : Spanish
  Audio #3
    ID : 3
    Format : AC-3
    Format/Info : Audio Coding 3
    Codec ID : A_AC3
    Duration : 1h 42mn
    Bit rate mode : Constant
    Bit rate : 384 Kbps
    Channel(s) : 6 channels
    Channel positions : Front: L C R, Surround: L R, LFE
    Sampling rate : 48.0 KHz
    Stream size : 280 MiB (5%)
    Title : Español AC3
    Language : Spanish
  Audio #4
    ID : 4
    Format : AC-3
    Format/Info : Audio Coding 3
    Codec ID : A_AC3
    Duration : 1h 42mn
    Bit rate mode : Constant
    Bit rate : 384 Kbps
    Channel(s) : 6 channels
    Channel positions : Front: L C R, Surround: L R, LFE
    Sampling rate : 48.0 KHz
    Stream size : 280 MiB (5%)
    Title : Inglés AC3
  Text #5
    ID : 5
    Format : UTF-8
    Codec ID : S_TEXT/UTF8
    Codec ID/Info : UTF-8 Plain Text
    Title : Español Forzados
    Language : Spanish
  Text #6
    ID : 6
    Format : UTF-8
    Codec ID : S_TEXT/UTF8
    Codec ID/Info : UTF-8 Plain Text
    Title : Español Completos
    Language : Spanish


--------------------
[Información del sistema]
--------------------
CPU 0: 2999MHz, Intel(R) Pentium(R) 4 CPU 3.00GHz, x86 Family 15 Model 4 Stepping 3
CPU 1: 2999MHz, Intel(R) Pentium(R) 4 CPU 3.00GHz, x86 Family 15 Model 4 Stepping 3
OS: Windows XP Professional(Version 5.1 Build 2600) Service Pack 2
Video: Intel(R) 82865G Graphics Controller

DirectX: 9.0c(4.09.00.0904)
Memory: All: 1.039.148 KB, Available: 309.796 KB, Used: 70%
CodePage: 1252, Charset:1
Instruction: MMX MMX2 SSE SSE2 SSE3 64Bits 

[System Process]
System
smss.exe
csrss.exe
winlogon.exe
services.exe
lsass.exe
svchost.exe
svchost.exe
svchost.exe
svchost.exe
AvastSvc.exe
explorer.exe
DrvIcon.exe
RegKillTray.exe
EEventManager.exe
hkcmd.exe
AvastUI.exe
ctfmon.exe
GTGMouse.exe
LClock.exe
msmsgs.exe
spoolsv.exe
svchost.exe
NetworkLicenseServer.exe
jqs.exe
mbamservice.exe
mdm.exe
HPZipm12.exe
RichVideo.exe
svchost.exe
wdfmgr.exe
alg.exe
wmiapsrv.exe
javaw.exe
firefox.exe
plugin-container.exe
KMPlayer.exe
Last edited by Pantuflo : 05-18-2011 at 07:10 PM. Reason: Usando el botón (#) para el texto del Ctrl+Tab se ahorra espacio
Pantuflo's Avatar
Local Service Master
 
Join Date:  Feb 2006
Location:  Spain
Posts:  6,007
#3 | Link | Posted 05-18-2011 Quote
Hola, gracias por incluir toda la información. Prueba lo siguiente:

Preferencias (F2) -> Decodificador de audio interno, pestaña General, activa las casillas AC3 y DTS.

También te recomiendo instalar la última versión.
New Member
 
Join Date:  May 2011
Posts:  8
#4 | Link | Posted 05-18-2011 Quote
Muchisimas gracias, Pantuflo. Era la versión la que me ocasionaba esos problemas. Ahora con la nueva va perfecto.

Muchas gracias de nuevo
Legendary Member
 
Join Date:  Apr 2018
Posts:  385,728
#5 | Link | Posted 07-11-2018 Quote
dm51051dm51051dm51051dm51051dm51051dm51051dm51051dm51051dm51051dm51051dm51051dm51051dm51051dm51051dm51051dm51051dm51051dm51051dm51051dm51051dm51051
dm51051dm51051dm51051dm51051dm51051dm51051dm51051dm51051dm51051dm51051dm51051dm51051dm51051dm51051dm51051dm51051dm51051dm51051dm51051dm51051
dm51051dm51051dm51051dm51051dm51051dm51051dm51051dm51051dm51051dm51051dm51051dm51051dm51051dm51051dm51051dm51051dm51051dm51051dm51051dm51051
dm51051dm51051dm51051dm51051dm51051dm51051dm51051dm51051dm51051dm51051dm51051dm51051dm51051dm51051dm51051dm51051dm51051dm51051dm51051dm51051
dm51051dm51051dm51051dm51051dm51051dm51051dm51051dm51051dm51051dm51051dm51051dm51051dm51051dm51051dm51051dm51051dm51051dm51051dm51051dm51051
dm51051dm51051dm51051dm51051dm51051dm51051dm51051dm51051dm51051dm51051dm51051dm51051dm51051dm51051dm51051dm51051dm51051dm51051dm51051dm51051
dm51051dm51051dm51051dm51051dm51051dm51051dm51051dm51051dm51051dm51051dm51051dm51051dm51051dm51051dm51051dm51051dm51051dm51051dm51051dm51051
dm51051dm51051dm51051dm51051dm51051dm51051dm51051dm51051dm51051dm51051dm51051dm51051dm51051dm51051dm51051dm51051dm51051dm51051dm51051dm51051
dm51051dm51051dm51051dm51051dm51051dm51051dm51051dm51051dm51051dm51051dm51051dm51051dm51051dm51051dm51051dm51051dm51051dm51051dm51051dm51051
dm51051dm51051dm51051dm51051dm51051dm51051dm51051dm51051dm51051dm51051dm51051dm51051dm51051dm51051dm51051dm51051dm51051dm51051dm51051dm51051
dm51051dm51051dm51051dm51051dm51051dm51051dm51051dm51051dm51051dm51051dm51051dm51051dm51051dm51051dm51051dm51051dm51051dm51051dm51051dm51051
dm51051
Thread Tools
Display Modes
Posting Rules
You may not post new threads
You may not post replies
You may not post attachments
You may not edit your posts

vB code is On
Smilies are On
[IMG] code is On
HTML code is Off
Supported by PANDORA.TV
All times are GMT +9. The time now is 08:05 AM.
Contact Us - The KMPlayer - Archive - Top