KMPlayerㅣForum
Korean Download Skins Testimonials User Map RSS
Found a reproducible bug in kmp? Report it with detailed things.
View First Unread   Thread Tools Linear ModeHybrid ModeThreaded Mode
New Member
 
Join Date:  May 2012
Posts:  1
#1 | Link | KMPlayer 3.3.0.33 hangs randomly when closing, Posted 07-14-2012 Quote
KMPlayer 3.3.0.33 (downloaded yeasterday) hangs randomly when I close it using close button in the upper right corner of the window. It simply stops responding freezing the picture. The only way to shut it down is to kill the process. There is no visible system (different movies, different video and sound codecs), but it seems it hangs only after it plays a movie for a while (it never hangs if closed soon after start).

Not a big problem, but annoying one. There was nothing like that in previous versions of the player.

Windows Vista with SP2 and all the current patches.
New Member
 
Join Date:  Nov 2008
Posts:  5
#2 | Link | Posted 08-01-2012 Quote
same problem. hangs when closing or pressing strop. Annoying as hell
Pantuflo's Avatar
Local Service Master
 
Join Date:  Feb 2006
Location:  Spain
Posts:  6,007
#3 | Link | Posted 08-01-2012 Quote
Could you post the Ctrl+Tab report for any of those videos?
Is KMP+/Albumart enabled or disabled?
New Member
 
Join Date:  Nov 2008
Posts:  5
#4 | Link | Posted 08-05-2012 Quote
[Primary Filtergraph]
0) - KMP Matroska Reader
1) - KMP Audio Codec
2) - KMP Video Codec
3) - KMP Video Transform
4) - KMP Audio Transform(Copy)
5) - Video Mixing Renderer9(Renderless)
6) - Default DirectSound Device

[Video Info]
Decoder - (MPEG2) KMP Video Codec(AVC1-libcodec.dll)
Format - Major Type: Video - Sub Type: YV12
VideoInfo2: YV12 1920X1080, 12 bits
Format - Major Type: Video - Sub Type: YV12
VideoInfo2: YV12 2048X-1080, 12 bits

[Audio Info]
Decoder - (0x8) KMP Audio Codec(DTS(Digital Theater Systems)-LibDTS.dll)
Format - Major Type: Audio - Sub Type: PCM
WaveFormatEx: PCM(0x1), 48000 Hz, 16 Bits, 2 Ch

[Basic Video DSP]
Internal brightness: 100%

[Advanced Video DSP]
+PictureProperty(S/W Process)
-LumGain: 129
-LumOffset: -4
-Gamma: 100
-HUE: 2
-Saturation: 91
+Video Plugin

[Audio DSP]
+Pre amplification: Main: (100%)
+Auto Volume Control
+3D Effect: 5000
+Audio Plugin

[Subtitle Settings]
+Draw Mode(Selected): VMR
+Draw Mode(In use): VMR(Renderless)
+Text Rendering Method: Rasterizer
+Support HTML Tags(SMI)

[KMPlayer]
+Version: 3.3.0.33(7,701,120, 12/07/2012 07:55:20)
+libcodec.dll: (3,019,776, 05/07/2012 09:36:50)
+libmplay.dll: (420,864, 21/02/2012 12:27:40)
+PProcDLL.dll: 1.0.0.1(1,769,472, 25/02/2008 09:07:04)
+LibDTS.dll: (178,174, 05/12/2008 10:42:20)
+liba52.dll: (73,063, 05/12/2008 10:41:10)
+libfaad2.dll: (335,155, 05/12/2008 10:37:06)
+libmad.dll: (123,036, 05/12/2008 10:42:30)
+libmpeg2.dll: (154,644, 05/12/2008 10:42:42)
+theora.dll: (200,864, 05/12/2008 10:43:32)
+OggVorbis.dll: (1,165,312, 25/02/2008 09:07:00)
+xviddll.dll: (758,319, 05/12/2008 10:58:36)
+Old_QUARTZ.DLL: 6.01.05.0319(770,048, 25/02/2008 09:07:00)
+AboutDll.dll: (105,472, 03/10/2005 08:12:18)
+DTView.dll: (98,304, 21/02/2012 12:27:36)
+ImLoader.dll: (856,064, 25/02/2008 09:05:22)
+MediaInfo.dll: 0.7.58.0(2,947,184, 22/06/2012 12:19:26)
+KMPAlbumArt.dll: 2009, 1, 5, 0(2,400,256, 05/01/2009 21:33:48)
+logo\KMP_Album_Art.swf: (1,113,828, 27/07/2012 16:31:18)


--------------------
[File Info]
--------------------
Z:\Video\Movies\Ordinary.Decent.Criminal.2000.1080 p.BluRay.x264-PSYCHD\Ordinary.Decent.Criminal.2000.1080p.BluRay. x264-PSYCHD.mkv
General
Complete name : Z:\Video\Movies\Ordinary.Decent.Criminal.2000.1080 p.BluRay.x264-PSYCHD\Ordinary.Decent.Criminal.2000.1080p.BluRay. x264-PSYCHD.mkv
Format : Matroska
Format version : Version 2
File size : 6.55 GiB
Duration : 1h 34mn
Overall bit rate : 9 941 Kbps
Writing application : x264.exe
Writing library : mkv2rls v1.4 (date: 2011 mar 29)
Video #1
ID : 1
Format : AVC
Format/Info : Advanced Video Codec
Format profile : High@L4.1
Format settings, CABAC : Yes
Format settings, ReFrames : 4 frames
Codec ID : V_MPEG4/ISO/AVC
Duration : 1h 34mn
Bit rate : 8 437 Kbps
Width : 1 920 pixels
Height : 1 080 pixels
Display aspect ratio : 16:9
Frame rate : 23.976 fps
Color space : YUV
Chroma subsampling : 4:2:0
Bit depth : 8 bits
Scan type : Progressive
Bits/(Pixel*Frame) : 0.170
Stream size : 5.43 GiB (83%)
Writing library : x264 core 122 r2184 5c85e0a
Encoding settings : cabac=1 / ref=4 / deblock=1:0:0 / analyse=0x3:0x113 / me=umh / subme=8 / psy=1 / psy_rd=1.00:0.00 / mixed_ref=1 / me_range=16 / chroma_me=1 / trellis=1 / 8x8dct=1 / cqm=0 / deadzone=21,11 / fast_pskip=1 / chroma_qp_offset=-2 / threads=12 / sliced_threads=0 / nr=0 / decimate=1 / interlaced=0 / bluray_compat=0 / constrained_intra=0 / bframes=3 / b_pyramid=2 / b_adapt=2 / b_bias=0 / direct=3 / weightb=1 / open_gop=0 / weightp=2 / keyint=240 / keyint_min=24 / scenecut=40 / intra_refresh=0 / rc_lookahead=50 / rc=2pass / mbtree=1 / bitrate=8437 / ratetol=1.0 / qcomp=0.60 / qpmin=0 / qpmax=69 / qpstep=4 / cplxblur=20.0 / qblur=0.5 / ip_ratio=1.40 / aq=1:1.00
Language : English
Default : Yes
Forced : No
Audio #2
ID : 2
Format : DTS
Format/Info : Digital Theater Systems
Codec ID : A_DTS
Duration : 1h 34mn
Bit rate mode : Constant
Bit rate : 1 510 Kbps
Channel(s) : 2 channels
Channel positions : Front: L R
Sampling rate : 48.0 KHz
Bit depth : 24 bits
Compression mode : Lossy
Stream size : 1 019 MiB (15%)
Language : English
Default : Yes
Forced : No


--------------------
[System Info]
--------------------
CPU 0: 2666MHz, Intel(R) Core(TM)2 Duo CPU E6750 @ 2.66GHz, Intel64 Family 6 Model 15 Stepping 11
CPU 1: 2666MHz, Intel(R) Core(TM)2 Duo CPU E6750 @ 2.66GHz, Intel64 Family 6 Model 15 Stepping 11
OS: Windows NT Professional(Version 6.1 Build 7601) Service Pack 1
Video: NVIDIA GeForce 9800 GT

DirectX: 9.0c(4.09.00.0904)
Memory: All: 4,194,304 KB, Available: 2,859,504 KB, Used: 32%
CodePage: 1255, Charset:1
Instruction: MMX MMX2 SSE SSE2 SSE3 64Bits

[System Process]
System
smss.exe
csrss.exe
wininit.exe
csrss.exe
winlogon.exe
services.exe
lsass.exe
lsm.exe
svchost.exe
nvvsvc.exe
nvSCPAPISvr.exe
svchost.exe
svchost.exe
svchost.exe
svchost.exe
svchost.exe
svchost.exe
nvxdsync.exe
nvvsvc.exe
spoolsv.exe
svchost.exe
armsvc.exe
taskhost.exe
AppleMobileDeviceService.exe
dwm.exe
mDNSResponder.exe
ekrn.exe
svchost.exe
LMIGuardianSvc.exe
ramaint.exe
LogMeIn.exe
sqlservr.exe
nTuneService.exe
LogMeInSystray.exe
XBoxStat.exe
RAVCpl64.exe
PnkBstrA.exe
RichVideo64.exe
itype.exe
egui.exe
sqlwriter.exe
steam.exe
svchost.exe
nvtray.exe
ubd.exe
vmware-usbarbitrator64.exe
vmnat.exe
WLIDSVC.EXE
razerhid.exe
vmware-authd.exe
razertra.exe
WLIDSVCM.EXE
razerofa.exe
vdDaemon.exe
WmiPrvSE.exe
distnoted.exe
conhost.exe
vmnetdhcp.exe
APSDaemon.exe
vmware-hostd.exe
SearchIndexer.exe
svchost.exe
wmpnetwk.exe
svchost.exe
notepad.exe
dllhost.exe
daemonu.exe
svchost.exe
Everything.exe
ACDSeeProInTouch2.exe
OSPPSVC.EXE
Babylon.exe
taskhost.exe
uTorrent.exe
wuauclt.exe
explorer.exe
chrome.exe
chrome.exe
chrome.exe
chrome.exe
chrome.exe
chrome.exe
chrome.exe
chrome.exe
audiodg.exe
chrome.exe
chrome.exe
chrome.exe
chrome.exe
KMPlayer.exe


i get this error when Albumart is enabled or disabled.
Also, It only happens when i try to close HD movies that are located on my network drive.
Local files close fine.
Small video files (Divx avi) located on my network drive close fine as well.
New Member
 
Join Date:  Nov 2008
Posts:  5
#5 | Link | Posted 08-09-2012 Quote
Pantuflo, Can someone clean that spam and help out with this problem?
Nuihc88's Avatar
Local Service Master in Finland
 
Join Date:  Apr 2008
Location:  Finland
Posts:  559
#6 | Link | Posted 08-13-2012 Quote
Try toggling the 'Open a file using thread to fix a screen freezing problem' checkbox at: '[F2] > General > General (tab)'.
-Former Local Service Master of Finland-
Formerly a Translator of Finnish.ini & Maintainer of English.ini
New renaissance is coming, are you ready?
Thread Tools
Display Modes
Posting Rules
You may not post new threads
You may not post replies
You may not post attachments
You may not edit your posts

vB code is On
Smilies are On
[IMG] code is On
HTML code is Off
Supported by PANDORA.TV
All times are GMT +9. The time now is 04:22 PM.
Contact Us - The KMPlayer - Archive - Top