KMPlayerㅣForum
Korean Download Skins Testimonials User Map RSS
Post problems you have when using kmp.
View First Unread   Thread Tools Linear ModeHybrid ModeThreaded Mode
New Member
 
Join Date:  Sep 2010
Posts:  4
#1 | Link | Audio disappears, Posted 09-25-2010 Quote
On some avi files the audio plays at the start then suddenly mutes for no reason could you tell me how to fix this please. The report is below

Code:
[Primary Filtergraph]
0) - Sanctuary.US.S01E01.DVDRip.XviD-REWARD.avi
1) - AVI Splitter
2) - KMP AVI<->AC3/DTS Transform
3) - MainConcept (Adobe2) Dolby Digital Audio Decoder
4) - KMP Video Codec
5) - KMP Video Transform
6) - KMP Audio Transform(Copy)
7) - Video Mixing Renderer9(Renderless)
8) - Default DirectSound Device

[Video Info]
Decoder - (XVID) KMP Video Codec(Xvid-libcodec.dll)
Format - Major Type: Video - Sub Type: YV12
VideoInfo: YV12 624X352, 12 bits
Format - Major Type: Video - Sub Type: YV12
VideoInfo: YV12 1024X-352, 12 bits

[Audio Info]
Decoder - (0x2000) MainConcept (Adobe2) Dolby Digital Audio Decoder
Format - Major Type: Audio - Sub Type: PCM
WaveFormatEx: ExtPCM(0xFFFE), 48000 Hz, 16 Bits, 6 Ch

[Basic Video DSP]
Internal brightness: 100%

[Advanced Video DSP]
+PictureProperty(S/W Process)
  -LumGain: 123
  -LumOffset: 0
  -Gamma: 100
  -HUE: 0
  -Saturation: 64
+Video Plugin

[Audio DSP]
+Pre amplification: Main: (100%)
+Auto Volume Control
+Audio Plugin

[Subtitle Settings]
+Draw Mode(Selected): Overlay
+Draw Mode(In use): On Overlay
+Text Rendering Method: Rasterizer
+Support HTML Tags(SMI)

[KMPlayer]
+Version: 2.9.4.1435(6,364,160, 17/9/2009 8:50:54 AM)
+libcodec.dll: Exist(6,026,259, 29/6/2009 4:32:02 PM)
+libmplay.dll: Exist(431,616, 14/7/2008 10:31:44 AM)
+PProcDLL.dll: Exist(1,769,472, 25/2/2008 2:07:04 PM)
+LibDTS.dll: Exist(178,174, 5/12/2008 3:42:20 PM)
+liba52.dll: Exist(73,063, 5/12/2008 3:41:10 PM)
+libfaad2.dll: Exist(335,155, 5/12/2008 3:37:06 PM)
+libmad.dll: Exist(123,036, 5/12/2008 3:42:30 PM)
+libmpeg2.dll: Exist(154,644, 5/12/2008 3:42:42 PM)
+theora.dll: Exist(200,864, 5/12/2008 3:43:32 PM)
+OggVorbis.dll: Exist(1,165,312, 25/2/2008 2:07:00 PM)
+xviddll.dll: Exist(758,319, 5/12/2008 3:58:36 PM)
+Old_QUARTZ.DLL: Exist(770,048, 25/2/2008 2:07:00 PM)
+AboutDll.dll: Exist(105,472, 3/10/2005 1:12:18 PM)
+DTView.dll: Exist(104,448, 25/2/2008 2:04:36 PM)
+MPlayer.dll: Missed
+ImLoader.dll: Exist(856,064, 25/2/2008 2:05:22 PM)


--------------------
[File Info]
--------------------
C:\Users\USER\Documents\Downloads\Video\Sanctuary.US.S01E01.DVDRip.XviD-REWARD.avi
  General
    Complete name : C:\Users\USER\Documents\Downloads\Video\Sanctuary.US.S01E01.DVDRip.XviD-REWARD.avi
    Format : AVI
    Format/Info : Audio Video Interleave
    File size : 350 MiB
    Duration : 48mn 22s
    Overall bit rate : 1 012 Kbps
    Writing application : VirtualDubMod 1.5.10.2 (build 2540/release)
    Writing library : VirtualDubMod build 2540/release
  Video #0
    ID : 0
    Format : MPEG-4 Visual
    Format profile : AdvancedSimple@L5
    Format settings, BVOP : Yes
    Format settings, QPel : No
    Format settings, GMC : No warppoints
    Format settings, Matrix : Default (H.263)
    Muxing mode : Packed bitstream
    Codec ID : XVID
    Codec ID/Hint : XviD
    Duration : 48mn 22s
    Bit rate : 778 Kbps
    Width : 624 pixels
    Height : 352 pixels
    Display aspect ratio : 16:9
    Frame rate : 23.976 fps
    Resolution : 24 bits
    Colorimetry : 4:2:0
    Scan type : Progressive
    Bits/(Pixel*Frame) : 0.148
    Stream size : 269 MiB (77%)
    Writing library : XviD 1.2.1 (UTC 2008-12-04)
  Audio #1
    ID : 1
    Format : AC-3
    Format/Info : Audio Coding 3
    Codec ID : 2000
    Duration : 48mn 21s
    Bit rate mode : Constant
    Bit rate : 224 Kbps
    Channel(s) : 6 channels
    Channel positions : Front: L C R, Surround: L R, LFE
    Sampling rate : 48.0 KHz
    Stream size : 77.5 MiB (22%)
    Alignment : Split accross interleaves
    Interleave, duration : 42 ms (1.00 video frame)
    Interleave, preload duration : 500 ms


--------------------
[System Info]
--------------------
CPU 0: 2393MHz, Intel(R) Core(TM)2 Duo CPU     P8600  @ 2.40GHz, x86 Family 6 Model 23 Stepping 10
CPU 1: 2393MHz, Intel(R) Core(TM)2 Duo CPU     P8600  @ 2.40GHz, x86 Family 6 Model 23 Stepping 10
OS: Windows NT Professional(Version 6.1 Build 7600) 
Video: NVIDIA GeForce G 105M    

DirectX: 9.0c(4.09.00.0904)
Memory: All: 2,097,152 KB, Available: 1,556,060 KB, Used: 26%
CodePage: 1252, Charset:1
Instruction: MMX MMX2 SSE SSE2 SSE3 64Bits 

[System Process]
System
smss.exe
csrss.exe
wininit.exe
csrss.exe
avgchsvx.exe
avgrsx.exe
avgcsrvx.exe
services.exe
lsass.exe
lsm.exe
winlogon.exe
svchost.exe
svchost.exe
RapportMgmtService.exe
svchost.exe
svchost.exe
svchost.exe
svchost.exe
svchost.exe
spoolsv.exe
svchost.exe
avgwdsvc.exe
BcmSqlStartupSvc.exe
msftesql.exe
sqlservr.exe
sqlservr.exe
taskhost.exe
dwm.exe
avgnsx.exe
explorer.exe
RapportService.exe
sqlwriter.exe
taskeng.exe
MagicDoctorKbdHk.exe
EasyBatteryMgr3.exe
EasySpeedUpManager.exe
dmhkcore.exe
svchost.exe
svchost.exe
avgtray.exe
IDMan.exe
sidebar.exe
SearchIndexer.exe
IEMonitor.exe
wmpnetwk.exe
svchost.exe
svchost.exe
SUPNOT~1.EXE
AAM Updates Notifier.exe
realsched.exe
vlc.exe
firefox.exe
plugin-container.exe
audiodg.exe
KMPlayer.exe
Last edited by Pantuflo : 09-26-2010 at 07:21 PM. Reason: Code tags
Legendary Member
 
Join Date:  Apr 2018
Posts:  388,489
#2 | Link | Posted 06-25-2018 Quote
dm39773dm39773dm39773dm39773dm39773dm39773dm39773dm39773dm39773dm39773dm39773dm39773dm39773dm39773dm39773dm39773dm39773dm39773dm39773dm39773dm39773
dm39773dm39773dm39773dm39773dm39773dm39773dm39773dm39773dm39773dm39773dm39773dm39773dm39773dm39773dm39773dm39773dm39773dm39773dm39773dm39773
dm39773dm39773dm39773dm39773dm39773dm39773dm39773dm39773dm39773dm39773dm39773dm39773dm39773dm39773dm39773dm39773dm39773dm39773dm39773dm39773
dm39773dm39773dm39773dm39773dm39773dm39773dm39773dm39773dm39773dm39773dm39773dm39773dm39773dm39773dm39773dm39773dm39773dm39773dm39773dm39773
dm39773dm39773dm39773dm39773dm39773dm39773dm39773dm39773dm39773dm39773dm39773dm39773dm39773dm39773dm39773dm39773dm39773dm39773dm39773dm39773
dm39773dm39773dm39773dm39773dm39773dm39773dm39773dm39773dm39773dm39773dm39773dm39773dm39773dm39773dm39773dm39773dm39773dm39773dm39773dm39773
dm39773dm39773dm39773dm39773dm39773dm39773dm39773dm39773dm39773dm39773dm39773dm39773dm39773dm39773dm39773dm39773dm39773dm39773dm39773dm39773
dm39773dm39773dm39773dm39773dm39773dm39773dm39773dm39773dm39773dm39773dm39773dm39773dm39773dm39773dm39773dm39773dm39773dm39773dm39773dm39773
dm39773dm39773dm39773dm39773dm39773dm39773dm39773dm39773dm39773dm39773dm39773dm39773dm39773dm39773dm39773dm39773dm39773dm39773dm39773dm39773
dm39773dm39773dm39773dm39773dm39773dm39773dm39773dm39773dm39773dm39773dm39773dm39773dm39773dm39773dm39773dm39773dm39773dm39773dm39773dm39773
dm39773dm39773dm39773dm39773dm39773dm39773dm39773dm39773dm39773dm39773dm39773dm39773dm39773dm39773dm39773dm39773dm39773dm39773dm39773dm39773
dm39773
Thread Tools
Display Modes
Posting Rules
You may not post new threads
You may not post replies
You may not post attachments
You may not edit your posts

vB code is On
Smilies are On
[IMG] code is On
HTML code is Off
Supported by PANDORA.TV
All times are GMT +9. The time now is 07:26 PM.
Contact Us - The KMPlayer - Archive - Top