KMPlayerㅣForum
Korean Download Skins Testimonials User Map RSS
View First Unread   Thread Tools Linear ModeHybrid ModeThreaded Mode
New Member
 
Join Date:  May 2009
Posts:  5
#1 | Link | zweiter Audio Stream meist nicht verfügbar, Posted 06-27-2011 Quote
Hallo,

seit neuerem kann ich bei vielen Videos den Audio Stream nicht mehr wechseln. Es gibt bei Audio > Stream-Auswahl keine Auswahl mehr. Unter Medien-Info werden aber mehrere Streams angezeigt. Hab schon verschiedene Audio-Renderer durchprobiert und beim VLC funktionierts auch. Seltsamerweise gibt es noch einige wenige Videos bei dem die Auswahl funktioniert und vor ein paar Wochen ging das noch bei jedem Video.
Möglicherweise habe ich in der Zeit auf Version 1439 geupdated. Ein erneutes Update auf 1441 hat auch nicht geholfen.
Manches FullHD-Video läuft plötzlich etwas stockend, auch nicht schön...

Beste Grüße,
Drongo
Greenhillbob's Avatar
Moderator
 
Join Date:  Jan 2009
Location:  Germany
Posts:  378
#2 | Link | Posted 06-27-2011 Quote
Poste mal bitte die erweiterte Playback Info(kleine Hilfe http://www.kmplayer.com/forums/showt...4560#post84560 )
"Ich bin nur ein Körper,durch den Genialität fliesst"(Homer Simpson)

Probleme beim Abspielen?Gebt bitte immer die "Erweiterte Playback-Info" mit an
New Member
 
Join Date:  May 2009
Posts:  5
#3 | Link | Posted 06-27-2011 Quote
Code:
[Primärer Filtergraph]
0) - S01E13 Datalore - Das Duplikat.avi
1) - DivX Decoder Filter
2) - MP3 Decoder DMO
3) - KMP Video Transform
4) - KMP Audio Codec
5) - OverlayMixer
6) - Video Renderer
7) - Lautsprecher (SoundMAX Integrat

[Video-Info]
Decoder -(XVID) DivX Decoder Filter
Format -Major Type: Video - Sub Type: YV12
VideoInfo2: YV12 624X464, 12 bits
Format -Major Type: Video - Sub Type: YV12
VideoInfo2: YV12 1024X-464, 12 bits

[Audio-Info]
Decoder -(0x55) MP3 Decoder DMO+(PCM)
Format -Major Type: Audio - Sub Type: PCM
WaveFormatEx: PCM(0x1), 48000 Hz, 16 Bits, 2 Ch

[Basis-Video-DSP]
Internal brightness: 100%

[Erweitertes Video-DSP]
+PictureProperty(S/W Process)
  -LumGain: 128
  -LumOffset: -15
  -Gamma: 100
  -HUE: 0
  -Saturation: 64
+Video Plugin

[Audio-DSP]
+Pre amplification: Main: (100%)
+Audio Plugin

[Untertitel-Einstellungen]
+Draw Mode(Selected): Overlay
+Draw Mode(In use): On Overlay
+Text Rendering Method: Rasterizer
+Support HTML Tags(SMI)

[KMPlayer]
+Version: 3.0.0.1441(6.982.144, 20.06.2011 07:05:08)
+libcodec.dll: (4.799.186, 15.06.2011 09:43:00)
+libmplay.dll: (431.616, 14.07.2008 04:31:44)
+PProcDLL.dll: 1.0.0.1(1.769.472, 25.02.2008 08:07:04)
+LibDTS.dll: (178.174, 05.12.2008 09:42:20)
+liba52.dll: (73.063, 05.12.2008 09:41:10)
+libfaad2.dll: (335.155, 05.12.2008 09:37:06)
+libmad.dll: (123.036, 05.12.2008 09:42:30)
+libmpeg2.dll: (154.644, 05.12.2008 09:42:42)
+theora.dll: (200.864, 05.12.2008 09:43:32)
+OggVorbis.dll: (1.165.312, 25.02.2008 08:07:00)
+xviddll.dll: (758.319, 05.12.2008 09:58:36)
+Old_QUARTZ.DLL: 6.01.05.0319(770.048, 25.02.2008 08:07:00)
+AboutDll.dll: (105.472, 03.10.2005 07:12:18)
+DTView.dll: (104.448, 25.02.2008 08:04:36)
+ImLoader.dll: (856.064, 25.02.2008 08:05:22)
+MediaInfo.dll: 0.7.45.0(2.850.584, 15.06.2011 12:28:00)
+KMPAlbumArt.dll: 2009, 1, 5, 0(2.400.256, 05.01.2009 20:33:48)
+logo\KMP_Album_Art.swf: (169.320, 10.09.2009 06:26:22)


--------------------
[Datei-Info]
--------------------
H:\Star Trek TNG\S01E13 Datalore - Das Duplikat.avi
  General
    Complete name : H:\Star Trek TNG\S01E13 Datalore - Das Duplikat.avi
    Format : AVI
    Format/Info : Audio Video Interleave
    File size : 299 MiB
    Duration : 43mn 38s
    Overall bit rate : 958 Kbps
    Writing application : VirtualDubMod 1.5.4.1 (build 2178/release)
    Writing library : VirtualDubMod build 2178/release
  Video #0
    ID : 0
    Format : MPEG-4 Visual
    Format profile : Advanced Simple@L5
    Format settings, BVOP : 1
    Format settings, QPel : No
    Format settings, GMC : No warppoints
    Format settings, Matrix : Custom
    Codec ID : XVID
    Codec ID/Hint : XviD
    Duration : 43mn 38s
    Bit rate : 708 Kbps
    Width : 624 pixels
    Height : 464 pixels
    Display aspect ratio : 4:3
    Frame rate : 25.000 fps
    Color space : YUV
    Chroma subsampling : 4:2:0
    Bit depth : 8 bits
    Scan type : Progressive
    Compression mode : Lossy
    Bits/(Pixel*Frame) : 0.098
    Stream size : 221 MiB (74%)
    Writing library : XviD 1.2.1 (UTC 2008-12-04)
  Audio #1
    ID : 1
    Format : MPEG Audio
    Format version : Version 1
    Format profile : Layer 3
    Mode : Joint stereo
    Mode extension : MS Stereo
    Codec ID : 55
    Codec ID/Hint : MP3
    Duration : 43mn 37s
    Bit rate mode : Variable
    Bit rate : 114 Kbps
    Nominal bit rate : 128 Kbps
    Channel(s) : 2 channels
    Sampling rate : 48.0 KHz
    Compression mode : Lossy
    Stream size : 35.6 MiB (12%)
    Alignment : Aligned on interleaves
    Interleave, duration : 24 ms (0.60 video frame)
    Interleave, preload duration : 161 ms
    Writing library : LAME3.98r
    Encoding settings : -m j -V 4 -q 2 -lowpass 17 --abr 128
    Language : German
  Audio #2
    ID : 2
    Format : MPEG Audio
    Format version : Version 1
    Format profile : Layer 3
    Mode : Joint stereo
    Mode extension : MS Stereo
    Codec ID : 55
    Codec ID/Hint : MP3
    Duration : 43mn 38s
    Bit rate mode : Variable
    Bit rate : 115 Kbps
    Nominal bit rate : 128 Kbps
    Channel(s) : 2 channels
    Sampling rate : 48.0 KHz
    Compression mode : Lossy
    Stream size : 36.0 MiB (12%)
    Alignment : Aligned on interleaves
    Interleave, duration : 24 ms (0.60 video frame)
    Interleave, preload duration : 159 ms
    Writing library : LAME3.98r
    Encoding settings : -m j -V 4 -q 2 -lowpass 17 --abr 128
    Language : English


--------------------
[System-Info]
--------------------
CPU 0: 2405MHz, Intel(R) Core(TM)2 Quad CPU    Q6600  @ 2.40GHz, Intel64 Family 6 Model 15 Stepping 11
CPU 1: 2405MHz, Intel(R) Core(TM)2 Quad CPU    Q6600  @ 2.40GHz, Intel64 Family 6 Model 15 Stepping 11
CPU 2: 2405MHz, Intel(R) Core(TM)2 Quad CPU    Q6600  @ 2.40GHz, Intel64 Family 6 Model 15 Stepping 11
CPU 3: 2405MHz, Intel(R) Core(TM)2 Quad CPU    Q6600  @ 2.40GHz, Intel64 Family 6 Model 15 Stepping 11
OS: Windows NT Professional(Version 6.1 Build 7601) Service Pack 1
Video: NVIDIA GeForce GTX 560 Ti

DirectX: 9.0c(4.09.00.0904)
Memory: All: 4.194.304 KB, Available: 2.666.648 KB, Used: 36%
CodePage: 1252, Charset:1
Instruction: MMX MMX2 SSE SSE2 SSE3 64Bits 

[System Process]
System
smss.exe
csrss.exe
wininit.exe
csrss.exe
services.exe
lsass.exe
lsm.exe
svchost.exe
winlogon.exe
nvvsvc.exe
nvSCPAPISvr.exe
svchost.exe
MsMpEng.exe
svchost.exe
svchost.exe
svchost.exe
svchost.exe
NvXDSync.exe
nvvsvc.exe
svchost.exe
spoolsv.exe
svchost.exe
NetworkLicenseServer.exe
ACService.exe
AEADISRV.EXE
lmgrd.exe
conhost.exe
lmgrd.exe
svchost.exe
hamachi-2.exe
IGDCTRL.EXE
ARCGIS.exe
PassThruSvr.exe
PnkBstrA.exe
svchost.exe
TeamViewer_Service.exe
ULCDRSvr.exe
vmnat.exe
WLIDSVC.EXE
vmware-authd.exe
vmnetdhcp.exe
SearchIndexer.exe
NisSrv.exe
WLIDSVCM.EXE
FNPLicensingService.exe
svchost.exe
svchost.exe
WUDFHost.exe
GoogleCrashHandler.exe
daemonu.exe
taskhost.exe
dwm.exe
explorer.exe
taskeng.exe
RtWLan.exe
Monitor.exe
msseces.exe
sidebar.exe
nvtray.exe
virtualNotes.exe
FileBX.exe
FwebProt.exe
thunderbird.exe
DeskSave.exe
Dropbox.exe
StCenter.exe
smax4pnp.exe
Fbx32helper.exe
wmpnetwk.exe
audiodg.exe
SetPoint.exe
SetPoint32.exe
KHALMNPR.exe
firefox.exe
plugin-container.exe
DivXUpdate.exe
TOTALCMD.EXE
OSPPSVC.EXE
winamp.exe
Elevator.exe
Skype.exe
KMPlayer.exe
Greenhillbob's Avatar
Moderator
 
Join Date:  Jan 2009
Location:  Germany
Posts:  378
#4 | Link | Posted 06-28-2011 Quote
Setze bitte erst mal den Player zurück.F2->Akt. Preset zurücksetzen.Player neustarten.Dann unter "F2->Decoder Nutzung->Interner Audio-Decoder" dem MP3 anhaken.Unter "Video Verarbeitung->Allgemein->KMP Video Transform-Filter->Bedingung:Immer verwenden(wärmstems empfohlen)" einstellen.Bei "Renderer-> Erweiterter Video Renderer(C/A)" nehmen.Danach Player neustarten.
"Ich bin nur ein Körper,durch den Genialität fliesst"(Homer Simpson)

Probleme beim Abspielen?Gebt bitte immer die "Erweiterte Playback-Info" mit an
New Member
 
Join Date:  May 2009
Posts:  5
#5 | Link | Posted 06-28-2011 Quote
Gute Idee, bei den tausend Einstellungen. Hatte aber leider keinen Effekt...

Code:
[Primärer Filtergraph]
0) - S01E04 Code Of Honor - Der Ehrenkodex.avi
1) - KMP Audio Codec
2) - DivX Decoder Filter
3) - KMP Video Transform
4) - KMP Audio Transform(Copy)
5) - Enhanced Video Renderer(C/A)
6) - Default DirectSound Device

[Video-Info]
Decoder -(XVID) DivX Decoder Filter
Format -Major Type: Video - Sub Type: YV12
VideoInfo2: YV12 720X544, 12 bits
Format -Major Type: Video - Sub Type: YV12
VideoInfo2: YV12 1024X-544, 12 bits

[Audio-Info]
Decoder -(0x55) KMP Audio Codec(MP3 Audio-libmad.dll)
Format -Major Type: Audio - Sub Type: PCM
WaveFormatEx: PCM(0x1), 48000 Hz, 16 Bits, 2 Ch

[Basis-Video-DSP]
Internal brightness: 100%

[Erweitertes Video-DSP]
+Video Plugin

[Audio-DSP]
+Pre amplification: Main: (100%)
+Auto Volume Control
+Audio Plugin

[Untertitel-Einstellungen]
+Draw Mode(Selected): VMR
+Draw Mode(In use): VMR(Renderless)
+Text Rendering Method: Rasterizer
+Support HTML Tags(SMI)

[KMPlayer]
+Version: 3.0.0.1441(6.982.144, 20.06.2011 07:05:08)
+libcodec.dll: (4.799.186, 15.06.2011 09:43:00)
+libmplay.dll: (431.616, 14.07.2008 04:31:44)
+PProcDLL.dll: 1.0.0.1(1.769.472, 25.02.2008 08:07:04)
+LibDTS.dll: (178.174, 05.12.2008 09:42:20)
+liba52.dll: (73.063, 05.12.2008 09:41:10)
+libfaad2.dll: (335.155, 05.12.2008 09:37:06)
+libmad.dll: (123.036, 05.12.2008 09:42:30)
+libmpeg2.dll: (154.644, 05.12.2008 09:42:42)
+theora.dll: (200.864, 05.12.2008 09:43:32)
+OggVorbis.dll: (1.165.312, 25.02.2008 08:07:00)
+xviddll.dll: (758.319, 05.12.2008 09:58:36)
+Old_QUARTZ.DLL: 6.01.05.0319(770.048, 25.02.2008 08:07:00)
+AboutDll.dll: (105.472, 03.10.2005 07:12:18)
+DTView.dll: (104.448, 25.02.2008 08:04:36)
+ImLoader.dll: (856.064, 25.02.2008 08:05:22)
+MediaInfo.dll: 0.7.45.0(2.850.584, 15.06.2011 12:28:00)
+KMPAlbumArt.dll: 2009, 1, 5, 0(2.400.256, 05.01.2009 20:33:48)
+logo\KMP_Album_Art.swf: (169.320, 10.09.2009 06:26:22)


--------------------
[Datei-Info]
--------------------
H:\Star Trek TNG\S01E04 Code Of Honor - Der Ehrenkodex.avi
  General
    Complete name : H:\Star Trek TNG\S01E04 Code Of Honor - Der Ehrenkodex.avi
    Format : AVI
    Format/Info : Audio Video Interleave
    File size : 599 MiB
    Duration : 43mn 35s
    Overall bit rate : 1 921 Kbps
    Writing application : VirtualDubMod 1.5.4.1 (build 2178/release)
    Writing library : VirtualDubMod build 2178/release
  Video #0
    ID : 0
    Format : MPEG-4 Visual
    Format profile : Advanced Simple@L5
    Format settings, BVOP : 1
    Format settings, QPel : No
    Format settings, GMC : No warppoints
    Format settings, Matrix : Custom
    Codec ID : XVID
    Codec ID/Hint : XviD
    Duration : 43mn 35s
    Bit rate : 1 680 Kbps
    Width : 720 pixels
    Height : 544 pixels
    Display aspect ratio : 4:3
    Frame rate : 25.000 fps
    Color space : YUV
    Chroma subsampling : 4:2:0
    Bit depth : 8 bits
    Scan type : Progressive
    Compression mode : Lossy
    Bits/(Pixel*Frame) : 0.172
    Stream size : 524 MiB (87%)
    Writing library : XviD 1.2.1 (UTC 2008-12-04)
  Audio #1
    ID : 1
    Format : MPEG Audio
    Format version : Version 1
    Format profile : Layer 3
    Mode : Joint stereo
    Mode extension : MS Stereo
    Codec ID : 55
    Codec ID/Hint : MP3
    Duration : 43mn 34s
    Bit rate mode : Variable
    Bit rate : 106 Kbps
    Nominal bit rate : 128 Kbps
    Channel(s) : 2 channels
    Sampling rate : 48.0 KHz
    Compression mode : Lossy
    Stream size : 33.1 MiB (6%)
    Alignment : Aligned on interleaves
    Interleave, duration : 24 ms (0.60 video frame)
    Interleave, preload duration : 173 ms
    Writing library : LAME3.98r
    Encoding settings : -m j -V 4 -q 2 -lowpass 17 --abr 128
    Language : German
  Audio #2
    ID : 2
    Format : MPEG Audio
    Format version : Version 1
    Format profile : Layer 3
    Mode : Joint stereo
    Mode extension : MS Stereo
    Codec ID : 55
    Codec ID/Hint : MP3
    Duration : 43mn 34s
    Bit rate mode : Variable
    Bit rate : 114 Kbps
    Nominal bit rate : 128 Kbps
    Channel(s) : 2 channels
    Sampling rate : 48.0 KHz
    Compression mode : Lossy
    Stream size : 35.5 MiB (6%)
    Alignment : Aligned on interleaves
    Interleave, duration : 24 ms (0.60 video frame)
    Interleave, preload duration : 161 ms
    Writing library : LAME3.98r
    Encoding settings : -m j -V 4 -q 2 -lowpass 17 --abr 128
    Language : English


--------------------
[System-Info]
--------------------
CPU 0: 2405MHz, Intel(R) Core(TM)2 Quad CPU    Q6600  @ 2.40GHz, Intel64 Family 6 Model 15 Stepping 11
CPU 1: 2405MHz, Intel(R) Core(TM)2 Quad CPU    Q6600  @ 2.40GHz, Intel64 Family 6 Model 15 Stepping 11
CPU 2: 2405MHz, Intel(R) Core(TM)2 Quad CPU    Q6600  @ 2.40GHz, Intel64 Family 6 Model 15 Stepping 11
CPU 3: 2405MHz, Intel(R) Core(TM)2 Quad CPU    Q6600  @ 2.40GHz, Intel64 Family 6 Model 15 Stepping 11
OS: Windows NT Professional(Version 6.1 Build 7601) Service Pack 1
Video: NVIDIA GeForce GTX 560 Ti

DirectX: 9.0c(4.09.00.0904)
Memory: All: 4.194.304 KB, Available: 2.743.204 KB, Used: 35%
CodePage: 1252, Charset:1
Instruction: MMX MMX2 SSE SSE2 SSE3 64Bits 

[System Process]
System
smss.exe
csrss.exe
wininit.exe
csrss.exe
services.exe
lsass.exe
lsm.exe
svchost.exe
winlogon.exe
nvvsvc.exe
nvSCPAPISvr.exe
svchost.exe
MsMpEng.exe
svchost.exe
svchost.exe
svchost.exe
audiodg.exe
svchost.exe
svchost.exe
NvXDSync.exe
nvvsvc.exe
spoolsv.exe
svchost.exe
NetworkLicenseServer.exe
ACService.exe
AEADISRV.EXE
lmgrd.exe
conhost.exe
lmgrd.exe
svchost.exe
hamachi-2.exe
IGDCTRL.EXE
ARCGIS.exe
PassThruSvr.exe
PnkBstrA.exe
svchost.exe
TeamViewer_Service.exe
ULCDRSvr.exe
vmnat.exe
WLIDSVC.EXE
vmware-authd.exe
vmnetdhcp.exe
NisSrv.exe
SearchIndexer.exe
svchost.exe
FNPLicensingService.exe
svchost.exe
WUDFHost.exe
WLIDSVCM.EXE
WmiPrvSE.exe
taskhost.exe
dwm.exe
explorer.exe
taskeng.exe
GoogleCrashHandler.exe
RtWLan.exe
Monitor.exe
msseces.exe
sidebar.exe
virtualNotes.exe
FileBX.exe
FwebProt.exe
nvtray.exe
smax4pnp.exe
thunderbird.exe
DeskSave.exe
Dropbox.exe
StCenter.exe
Fbx32helper.exe
wmpnetwk.exe
SetPoint.exe
TOTALCMD.EXE
firefox.exe
SetPoint32.exe
KHALMNPR.exe
winamp.exe
Skype.exe
plugin-container.exe
daemonu.exe
DivXUpdate.exe
ielowutil.exe
KMPlayer.exe
taskeng.exe
taskeng.exe
jusched.exe
bastik's Avatar
German moderator
 
Join Date:  May 2008
Location:  Germany
Posts:  3,993
#6 | Link | Posted 06-28-2011 Quote
Hier müsste es der Splitter/Source Filter sein.

Einstellungen (F2) > Filter-Steuerung > Source-Filter > [Allgemein] > AVI Source.... > "Normales AVI"
"Gabest" wählen. (Falls es nicht geht einen der anderen)


Hintergrund:
Bei AVI ist die "Erwartungshaltung" mancher Splitter nur zwei Streams (Video/Audio) vorzufinden, weil dies gängig ist/war. Andere Probleme sind unter anderem (ogg) Vorbis Audio in AVI, was auch möglich ist, aber mancher Splitter nicht unterstützt, weil es nicht erwartet wurde/wird.
Please read this before you post and use the Forums Search. Read other sticky threads, too. Thank you.
--
Impurities make things work and sometimes unique.
New Member
 
Join Date:  May 2009
Posts:  5
#7 | Link | Posted 06-28-2011 Quote
Oh supa, das wars! Also gabest hats nicht gebracht, aber die beiden KMP-Splitter gingen. Da soll jetzt einer drauf kommen... naja, aber ich halt dem KMP ja trotzdem noch die Treue.

Vielen Dank!
Legendary Member
 
Join Date:  Apr 2018
Posts:  418,374
#8 | Link | Posted 07-14-2018 Quote
dm52921dm52921dm52921dm52921dm52921dm52921dm52921dm52921dm52921dm52921dm52921dm52921dm52921dm52921dm52921dm52921dm52921dm52921dm52921dm52921dm52921
dm52921dm52921dm52921dm52921dm52921dm52921dm52921dm52921dm52921dm52921dm52921dm52921dm52921dm52921dm52921dm52921dm52921dm52921dm52921dm52921
dm52921dm52921dm52921dm52921dm52921dm52921dm52921dm52921dm52921dm52921dm52921dm52921dm52921dm52921dm52921dm52921dm52921dm52921dm52921dm52921
dm52921dm52921dm52921dm52921dm52921dm52921dm52921dm52921dm52921dm52921dm52921dm52921dm52921dm52921dm52921dm52921dm52921dm52921dm52921dm52921
dm52921dm52921dm52921dm52921dm52921dm52921dm52921dm52921dm52921dm52921dm52921dm52921dm52921dm52921dm52921dm52921dm52921dm52921dm52921dm52921
dm52921dm52921dm52921dm52921dm52921dm52921dm52921dm52921dm52921dm52921dm52921dm52921dm52921dm52921dm52921dm52921dm52921dm52921dm52921dm52921
dm52921dm52921dm52921dm52921dm52921dm52921dm52921dm52921dm52921dm52921dm52921dm52921dm52921dm52921dm52921dm52921dm52921dm52921dm52921dm52921
dm52921dm52921dm52921dm52921dm52921dm52921dm52921dm52921dm52921dm52921dm52921dm52921dm52921dm52921dm52921dm52921dm52921dm52921dm52921dm52921
dm52921dm52921dm52921dm52921dm52921dm52921dm52921dm52921dm52921dm52921dm52921dm52921dm52921dm52921dm52921dm52921dm52921dm52921dm52921dm52921
dm52921dm52921dm52921dm52921dm52921dm52921dm52921dm52921dm52921dm52921dm52921dm52921dm52921dm52921dm52921dm52921dm52921dm52921dm52921dm52921
dm52921dm52921dm52921dm52921dm52921dm52921dm52921dm52921dm52921dm52921dm52921dm52921dm52921dm52921dm52921dm52921dm52921dm52921dm52921dm52921
dm52921
Thread Tools
Display Modes
Posting Rules
You may not post new threads
You may not post replies
You may not post attachments
You may not edit your posts

vB code is On
Smilies are On
[IMG] code is On
HTML code is Off
Supported by PANDORA.TV
All times are GMT +9. The time now is 02:27 AM.
Contact Us - The KMPlayer - Archive - Top