KMPlayerㅣForum
Korean Download Skins Testimonials User Map RSS
Found a reproducible bug in kmp? Report it with detailed things.
Page 1 of 2: 1 2 >
View First Unread   Thread Tools Linear ModeHybrid ModeThreaded Mode
New Member
 
Join Date:  Mar 2010
Posts:  13
#1 | Link | KMPlayer BUILD 1440 - Fixed audio codec always loaded.(LPCM, PCM) NOT actually fixed, Posted 05-16-2011 Quote
Hi all

The 1440 change log shows that the "audio codec always loaded" error which was reported by me for the first time, hasn't actually been fixed. The KMP audio codec is ALWAYS loaded for unselected audio formats in "Internal Audio Decoder" menu.
New Member
 
Join Date:  Mar 2010
Posts:  13
#2 | Link | Posted 05-19-2011 Quote
ANYONE?...
bastik's Avatar
German moderator
 
Join Date:  May 2008
Location:  Germany
Posts:  3,993
#3 | Link | Posted 05-20-2011 Quote
Have you reseted your setting? The audio codec does not get loaded when it should not be loaded, at least for me (and others)
Pantuflo's Avatar
Local Service Master
 
Join Date:  Feb 2006
Location:  Spain
Posts:  6,007
#4 | Link | Posted 05-20-2011 Quote
In my tests the bug still exists. I've tested several files (AVI with MP3, MKV with AAC, FLAC, DTS, ...) and the KMP PCM Audio codec is always loaded. I'm using W7 x64 and I've also tested it in two virtual machines (XP and W7), always with default settings.
New Member
 
Join Date:  Mar 2010
Posts:  13
#5 | Link | Posted 05-21-2011 Quote
Thank you Pantuflo. Now it's worse than in 1439, it is ALWAYS LOADED even IF the KMP Audio Transform Filter is disabled, whereas in 1439 with KATF disabled, the MP3 DMO would kick in.

Buggy buggy app.
New Member
 
Join Date:  Oct 2008
Posts:  11
#6 | Link | Posted 05-21-2011 Quote
I've found out, that with LAV Audio decoder, found at
http://forum.doom9.org/showthread.php?t=156191 ,
the KMP PCM audio decoder doesn't kick in for whatever reason.

The KMP Audio transform filter doesn't matter here. Just deselect both rows in "Internal audio decoder" page, choose LAV decoder in "External audio decoder" page, set LAV Audio decoder to be used forcibly in Custom filter manager, and that's it.

Here:


Code:
[Primary Filtergraph]
0) - Shrek.Uvijek.I.Zauvijek.2010.HRSINK.720p.BRip.mkv
1) - CoreAVC Video Decoder
2) - LAV Audio Decoder
3) - OverlayMixer
4) - Video Renderer
5) - ReClock Audio Renderer

[Video Info]
Decoder - (MPEG2) CoreAVC Video Decoder
Format - Major Type: Video - Sub Type: YV12
VideoInfo2: YV12 1536X-544, 12 bits

[Audio Info]
Decoder - (0x2000) LAV Audio Decoder
Format - Major Type: Audio - Sub Type: IEEE_FLOAT
WaveFormatEx: ExtPCM(0xFFFE), 48000 Hz, 32 Bits, 6 Ch

[Basic Video DSP]
Internal brightness: 100%

[Advanced Video DSP]
+PictureProperty(S/W Process)
  -LumGain: 128
  -LumOffset: 0
  -Gamma: 100
  -HUE: 0
  -Saturation: 64
+Video Plugin

[Audio DSP]
+Pre amplification: Main: (100%)
+Audio Plugin

[Subtitle Settings]
+Draw Mode(Selected): Image
+Draw Mode(In use): On Overlay
+Text Rendering Method: Rasterizer
+Support HTML Tags(SMI)

[KMPlayer]
+Version: 3.0.0.1440(6.906.880, 12.4.2011. 9:31:08)
+libcodec.dll: Exist(4.870.254, 1.12.2010. 3:06:46)
+libmplay.dll: Exist(431.616, 14.7.2008. 4:31:44)
+PProcDLL.dll: Exist(1.769.472, 25.2.2008. 8:07:04)
+LibDTS.dll: Exist(178.174, 5.12.2008. 9:42:20)
+liba52.dll: Exist(73.063, 5.12.2008. 9:41:10)
+libfaad2.dll: Exist(335.155, 5.12.2008. 9:37:06)
+libmad.dll: Exist(123.036, 5.12.2008. 9:42:30)
+libmpeg2.dll: Exist(154.644, 5.12.2008. 9:42:42)
+theora.dll: Exist(200.864, 5.12.2008. 9:43:32)
+OggVorbis.dll: Exist(1.165.312, 25.2.2008. 8:07:00)
+xviddll.dll: Exist(758.319, 5.12.2008. 9:58:36)
+Old_QUARTZ.DLL: Exist(770.048, 25.2.2008. 8:07:00)
+AboutDll.dll: Exist(105.472, 3.10.2005. 7:12:18)
+DTView.dll: Exist(104.448, 25.2.2008. 8:04:36)
+MPlayer.dll: Missed
+ImLoader.dll: Exist(856.064, 25.2.2008. 8:05:22)


--------------------
[File Info]
--------------------
H:\Movies\Crtani\Shrek zauvijek\Shrek.Uvijek.I.Zauvijek.2010.HRSINK.720p.BRip.mkv
  General
    Complete name : H:\Movies\Crtani\Shrek zauvijek\Shrek.Uvijek.I.Zauvijek.2010.HRSINK.720p.BRip.mkv
    Format : Matroska
    File size : 1.61 GiB
    Duration : 1h 33mn
    Overall bit rate : 2 470 Kbps
    Encoded date : UTC 2010-11-26 10:24:15
    Writing application : mkvmerge v4.1.1 ('Bouncin' Back') built on Jul  3 2010 22:54:08
    Writing library : libebml v1.0.0 + libmatroska v1.0.0
  Video #1
    ID : 1
    Format : AVC
    Format/Info : Advanced Video Codec
    Format profile : High@L4.1
    Format settings, CABAC : Yes
    Format settings, ReFrames : 8 frames
    Muxing mode : Container profile=Unknown@4.1
    Codec ID : V_MPEG4/ISO/AVC
    Duration : 1h 33mn
    Bit rate : 2 100 Kbps
    Nominal bit rate : 2 148 Kbps
    Width : 1 280 pixels
    Height : 544 pixels
    Display aspect ratio : 2.35:1
    Frame rate : 23.976 fps
    Resolution : 24 bits
    Colorimetry : 4:2:0
    Scan type : Progressive
    Bits/(Pixel*Frame) : 0.126
    Stream size : 1.37 GiB (85%)
    Writing library : x264 core 107 r1745+311 2317302
    Encoding settings : cabac=1 / ref=8 / deblock=1:1:-3 / analyse=0x3:0x113 / me=umh / subme=10 / psy=1 / fade_compensate=0.00 / psy_rd=1.01:0.01 / mixed_ref=1 / me_range=32 / chroma_me=1 / trellis=2 / 8x8dct=1 / cqm=0 / deadzone=21,11 / fast_pskip=0 / chroma_qp_offset=-3 / threads=6 / sliced_threads=0 / nr=0 / decimate=0 / interlaced=0 / constrained_intra=0 / fgo=0 / bframes=5 / b_pyramid=2 / b_adapt=2 / b_bias=0 / direct=2 / weightb=1 / open_gop=0 / weightp=2 / keyint=250 / keyint_min=23 / scenecut=40 / intra_refresh=0 / rc_lookahead=50 / rc=2pass / mbtree=1 / bitrate=2148 / ratetol=1.5 / qcomp=0.60 / qpmin=10 / qpmax=51 / qpstep=4 / cplxblur=20.0 / qblur=0.5 / vbv_maxrate=40000 / vbv_bufsize=30000 / ip_ratio=1.40 / aq=2:0.90 / nal_hrd=none
  Audio #2
    ID : 2
    Format : AC-3
    Format/Info : Audio Coding 3
    Codec ID : A_AC3
    Duration : 1h 33mn
    Bit rate mode : Constant
    Bit rate : 320 Kbps
    Channel(s) : 6 channels
    Channel positions : Front: L C R, Surround: L R, LFE
    Sampling rate : 48.0 KHz
    Stream size : 213 MiB (13%)
    Language : Croatian


--------------------
[System Info]
--------------------
CPU 0: 2660MHz, Intel(R) Pentium(R) Dual  CPU  E2180  @ 2.00GHz, Intel64 Family 6 Model 15 Stepping 13
CPU 1: 2660MHz, Intel(R) Pentium(R) Dual  CPU  E2180  @ 2.00GHz, Intel64 Family 6 Model 15 Stepping 13
OS: Windows NT Professional(Version 6.1 Build 7601) Service Pack 1
Video: NVIDIA GeForce 8800 GT 

DirectX: 9.0c(4.09.00.0904)
Memory: All: 2.095.608 KB, Available: 1.065.584 KB, Used: 49%
CodePage: 1250, Charset:1
Instruction: MMX MMX2 SSE SSE2 SSE3 64Bits
Last edited by R3deye : 05-22-2011 at 07:49 AM. Reason: CODE tags
Pantuflo's Avatar
Local Service Master
 
Join Date:  Feb 2006
Location:  Spain
Posts:  6,007
#7 | Link | Posted 05-21-2011 Quote
Since it's the "KMP 16 bits 2.0 PCM Audio Codec" what gets loaded, it does not load if the external codec audio output is different from that.

External codec with PCM 2.0 16 bits output: KMP audio codec gets loaded
External codec with 24/32 bits output, or with 5.1, 3, 2.1 channels, ... : KMP codec does not load --> OK

R3deye, in your case the LAV decoder is configured with 32 bits - 6 ch output, so the bug does not appear.

EDIT: More tests needed...
Last edited by Pantuflo : 05-22-2011 at 06:38 AM.
New Member
 
Join Date:  Oct 2008
Posts:  11
#8 | Link | Posted 05-22-2011 Quote
@Pantuflo

As you can see, this is not the case, because if I select AC3 filter with those settings (32bit, 6 ch), KMP Audio codec gets loaded anyway..:

Code:
[Primary Filtergraph]
0) - Shrek.Uvijek.I.Zauvijek.2010.HRSINK.720p.BRip.mkv
1) - AC3 Filter for AC3
2) - CoreAVC Video Decoder
3) - KMP Audio Codec
4) - OverlayMixer
5) - Video Renderer
6) - ReClock Audio Renderer

[Video Info]
Decoder - (MPEG2) CoreAVC Video Decoder
Format - Major Type: Video - Sub Type: YV12
VideoInfo2: YV12 1536X-544, 12 bits

[Audio Info]
Decoder - (0x2000) AC3 Filter for AC3+(PCM)
Format - Major Type: Audio - Sub Type: PCM
WaveFormatEx: PCM(0x1), 48000 Hz, 32 Bits, 6 Ch

[Basic Video DSP]
Internal brightness: 100%

[Advanced Video DSP]
+PictureProperty(S/W Process)
  -LumGain: 128
  -LumOffset: 0
  -Gamma: 100
  -HUE: 0
  -Saturation: 64

[Audio DSP]
+Pre amplification: Main: (100%)

[Subtitle Settings]
+Draw Mode(Selected): Image
+Draw Mode(In use): On Overlay
+Text Rendering Method: Rasterizer
+Support HTML Tags(SMI)

[KMPlayer]
+Version: 3.0.0.1440(6.906.880, 12.4.2011. 9:31:08)
+libcodec.dll: Exist(4.870.254, 1.12.2010. 3:06:46)
+libmplay.dll: Exist(431.616, 14.7.2008. 4:31:44)
+PProcDLL.dll: Exist(1.769.472, 25.2.2008. 8:07:04)
+LibDTS.dll: Exist(178.174, 5.12.2008. 9:42:20)
+liba52.dll: Exist(73.063, 5.12.2008. 9:41:10)
+libfaad2.dll: Exist(335.155, 5.12.2008. 9:37:06)
+libmad.dll: Exist(123.036, 5.12.2008. 9:42:30)
+libmpeg2.dll: Exist(154.644, 5.12.2008. 9:42:42)
+theora.dll: Exist(200.864, 5.12.2008. 9:43:32)
+OggVorbis.dll: Exist(1.165.312, 25.2.2008. 8:07:00)
+xviddll.dll: Exist(758.319, 5.12.2008. 9:58:36)
+Old_QUARTZ.DLL: Exist(770.048, 25.2.2008. 8:07:00)
+AboutDll.dll: Exist(105.472, 3.10.2005. 7:12:18)
+DTView.dll: Exist(104.448, 25.2.2008. 8:04:36)
+MPlayer.dll: Missed
+ImLoader.dll: Exist(856.064, 25.2.2008. 8:05:22)


--------------------
[File Info]
--------------------
H:\Movies\Crtani\Shrek zauvijek\Shrek.Uvijek.I.Zauvijek.2010.HRSINK.720p.BRip.mkv
  General
    Complete name : H:\Movies\Crtani\Shrek zauvijek\Shrek.Uvijek.I.Zauvijek.2010.HRSINK.720p.BRip.mkv
    Format : Matroska
    File size : 1.61 GiB
    Duration : 1h 33mn
    Overall bit rate : 2 470 Kbps
    Encoded date : UTC 2010-11-26 10:24:15
    Writing application : mkvmerge v4.1.1 ('Bouncin' Back') built on Jul  3 2010 22:54:08
    Writing library : libebml v1.0.0 + libmatroska v1.0.0
  Video #1
    ID : 1
    Format : AVC
    Format/Info : Advanced Video Codec
    Format profile : High@L4.1
    Format settings, CABAC : Yes
    Format settings, ReFrames : 8 frames
    Muxing mode : Container profile=Unknown@4.1
    Codec ID : V_MPEG4/ISO/AVC
    Duration : 1h 33mn
    Bit rate : 2 100 Kbps
    Nominal bit rate : 2 148 Kbps
    Width : 1 280 pixels
    Height : 544 pixels
    Display aspect ratio : 2.35:1
    Frame rate : 23.976 fps
    Resolution : 24 bits
    Colorimetry : 4:2:0
    Scan type : Progressive
    Bits/(Pixel*Frame) : 0.126
    Stream size : 1.37 GiB (85%)
    Writing library : x264 core 107 r1745+311 2317302
    Encoding settings : cabac=1 / ref=8 / deblock=1:1:-3 / analyse=0x3:0x113 / me=umh / subme=10 / psy=1 / fade_compensate=0.00 / psy_rd=1.01:0.01 / mixed_ref=1 / me_range=32 / chroma_me=1 / trellis=2 / 8x8dct=1 / cqm=0 / deadzone=21,11 / fast_pskip=0 / chroma_qp_offset=-3 / threads=6 / sliced_threads=0 / nr=0 / decimate=0 / interlaced=0 / constrained_intra=0 / fgo=0 / bframes=5 / b_pyramid=2 / b_adapt=2 / b_bias=0 / direct=2 / weightb=1 / open_gop=0 / weightp=2 / keyint=250 / keyint_min=23 / scenecut=40 / intra_refresh=0 / rc_lookahead=50 / rc=2pass / mbtree=1 / bitrate=2148 / ratetol=1.5 / qcomp=0.60 / qpmin=10 / qpmax=51 / qpstep=4 / cplxblur=20.0 / qblur=0.5 / vbv_maxrate=40000 / vbv_bufsize=30000 / ip_ratio=1.40 / aq=2:0.90 / nal_hrd=none
  Audio #2
    ID : 2
    Format : AC-3
    Format/Info : Audio Coding 3
    Codec ID : A_AC3
    Duration : 1h 33mn
    Bit rate mode : Constant
    Bit rate : 320 Kbps
    Channel(s) : 6 channels
    Channel positions : Front: L C R, Surround: L R, LFE
    Sampling rate : 48.0 KHz
    Stream size : 213 MiB (13%)
    Language : Croatian


--------------------
[System Info]
--------------------
CPU 0: 2660MHz, Intel(R) Pentium(R) Dual  CPU  E2180  @ 2.00GHz, Intel64 Family 6 Model 15 Stepping 13
CPU 1: 2660MHz, Intel(R) Pentium(R) Dual  CPU  E2180  @ 2.00GHz, Intel64 Family 6 Model 15 Stepping 13
OS: Windows NT Professional(Version 6.1 Build 7601) Service Pack 1
Video: NVIDIA GeForce 8800 GT 

DirectX: 9.0c(4.09.00.0904)
Memory: All: 2.095.608 KB, Available: 1.019.156 KB, Used: 51%
CodePage: 1250, Charset:1
Instruction: MMX MMX2 SSE SSE2 SSE3 64Bits
Last edited by R3deye : 05-22-2011 at 06:17 AM. Reason: Forgot the "code" tags, sry
Pantuflo's Avatar
Local Service Master
 
Join Date:  Feb 2006
Location:  Spain
Posts:  6,007
#9 | Link | Posted 05-22-2011 Quote
OK, I don't have time to test it more, so I'll let the work to developers.
New Member
 
Join Date:  Mar 2010
Posts:  13
#10 | Link | Posted 07-10-2011 Quote
The bug hasn't been fixed in latest build 1441
«Previous Thread | Bug Reports | Next Thread»
Page 1 of 2: 1 2 >
Thread Tools
Display Modes
Posting Rules
You may not post new threads
You may not post replies
You may not post attachments
You may not edit your posts

vB code is On
Smilies are On
[IMG] code is On
HTML code is Off
Supported by PANDORA.TV
All times are GMT +9. The time now is 11:56 PM.
Contact Us - The KMPlayer - Archive - Top