KMPlayerㅣForum
Korean Download Skins Testimonials User Map RSS
Page 1 of 2: 1 2 >
View First Unread   Thread Tools Linear ModeHybrid ModeThreaded Mode
New Member
 
Join Date:  Jan 2009
Posts:  3
#1 | Link | Ayuda con videos .mp4, Posted 01-19-2009 Quote
tengo un problema hace poco cuando instale el kmplayer reproducia todo y estaba bien pero hace unos dias los videos .mp4 el video es lento y en otros el video es normal a tamaño de la ventana pero cuando los pongo pantalla completa se lentean cosa que no pasaba antes
Pantuflo's Avatar
Local Service Master
 
Join Date:  Feb 2006
Location:  Spain
Posts:  6,007
#2 | Link | Posted 01-27-2009 Quote
Intenta restaurar la configuración por defecto (Preferencias -> Reiniciar perfil actual, o desde el instalador).

Si el problema persiste, presiona Ctrl+Tab mientras reproduces el vídeo y pega aquí el informe obtenido.
New Member
 
Join Date:  Jan 2009
Posts:  3
#3 | Link | Posted 01-28-2009 Quote
reinicie el perfil pero sigue igual


Code:
[Filtergraph primario]
0) - KMP MOV/MP4 Source
1) - KMP Video Codec
2) - KMP Audio Codec
3) - OverlayMixer
4) - KMP Audio Transform(Copy)
5) - Video Renderer
6) - Default DirectSound Device

[Info Vídeo]
Decodificador -(MPEG2) KMP Video Codec(AVC1-libcodec.dll)
Formato -Major Type: Video - Sub Type: YUY2
VideoInfo2: YUY2 640X-480, 16 bits

[Info Audio]
Decodificador -(0xFF) KMP Audio Codec(AAC 2-libfaad2.dll)
Formato -Major Type: Audio - Sub Type: PCM
WaveFormatEx: PCM(0x1), 44100 Hz, 16 Bits, 2 Ch

[Procesamiento básico de Vídeo]
Internal brightness: 100%

[Procesamiento avanzado de Vídeo]
+Video Plugin

[Procesamiento de Audio]
+Pre amplification: Main: (100%)
+Auto Volume Control
+Audio Plugin

[Configuración de subtítulos]
+Draw Mode(Selected): Image
+Draw Mode(In use): On Overlay
+Text Rendering Method: Rasterizer
+Support HTML Tags(SMI)

[The KMPlayer]
+Version: 2.9.4.1434 R2(6,322,176, 23/12/2008 11:35:20 a.m.)
+libcodec.dll: Exist(4,225,536, 11/07/2008 12:59:56 a.m.)
+libmplay.dll: Exist(431,616, 13/07/2008 09:31:44 p.m.)
+PProcDLL.dll: Exist(1,769,472, 30/11/2007 05:52:44 p.m.)
+LibDTS.dll: Exist(178,174, 05/12/2008 02:42:20 a.m.)
+liba52.dll: Exist(73,063, 05/12/2008 02:41:10 a.m.)
+libfaad2.dll: Exist(335,155, 05/12/2008 02:37:06 a.m.)
+libmad.dll: Exist(123,036, 05/12/2008 02:42:30 a.m.)
+libmpeg2.dll: Exist(154,644, 05/12/2008 02:42:42 a.m.)
+theora.dll: Exist(200,864, 05/12/2008 02:43:32 a.m.)
+OggVorbis.dll: Exist(1,165,312, 24/05/2007 03:08:26 a.m.)
+xviddll.dll: Exist(758,319, 05/12/2008 02:58:36 a.m.)
+Old_QUARTZ.DLL: Exist(770,048, 05/05/1999 04:22:00 p.m.)
+AboutDll.dll: Exist(105,472, 03/10/2005 08:12:18 a.m.)
+DTView.dll: Exist(104,448, 20/11/2006 03:33:20 p.m.)
+MPlayer.dll: Missed
+ImLoader.dll: Exist(856,064, 15/01/2006 08:21:26 a.m.)


--------------------
[Información de archivo]
--------------------
D:\Nueva carpeta\Samurai X\Samurai X 18 - Corre Yahiko, recupera la espada sin filo.mp4
  General
    Complete name : D:\Nueva carpeta\Samurai X\Samurai X 18 - Corre Yahiko, recupera la espada sin filo.mp4
    Format : MPEG-4
    Format profile : Base Media
    Codec ID : isom
    File size : 51.1 MiB
    Duration : 23mn 34s
    Overall bit rate : 303 Kbps
    Encoded date : UTC 2008-07-02 22:56:05
    Tagged date : UTC 2008-07-02 22:56:05
  Video #1
    Format : AVC
    Format/Info : Advanced Video Codec
    Format profile : High@L5.1
    Format settings, CABAC : Yes
    Format settings, ReFrames : 8 frames
    Codec ID : avc1
    Codec ID/Info : Advanced Video Coding
    Duration : 23mn 34s
    Bit rate mode : Variable
    Bit rate : 268 Kbps
    Maximum bit rate : 1 787 Kbps
    Width : 640 pixels
    Height : 480 pixels
    Display aspect ratio : 4/3
    Frame rate mode : Constant
    Frame rate : 23.976 fps
    Resolution : 24 bits
    Colorimetry : 4:2:0
    Scan type : Progressive
    Bits/(Pixel*Frame) : 0.036
    Stream size : 45.2 MiB (89%)
    Writing library : x264 core 56 svn-676
    Encoding settings : cabac=1 / ref=5 / deblock=1:1:1 / analyse=0x3:0x133 / me=umh / subme=6 / brdo=1 / mixed_ref=1 / me_range=16 / chroma_me=1 / trellis=1 / 8x8dct=1 / cqm=0 / deadzone=21,11 / chroma_qp_offset=0 / threads=3 / nr=0 / decimate=1 / mbaff=0 / bframes=5 / b_pyramid=1 / b_adapt=1 / b_bias=0 / direct=1 / wpredb=1 / bime=1 / keyint=250 / keyint_min=25 / scenecut=40(pre) / rc=2pass / bitrate=268 / ratetol=1.0 / rceq='blurCplx^(1-qComp)' / qcomp=0.60 / qpmin=10 / qpmax=51 / qpstep=4 / cplxblur=20.0 / qblur=0.5 / ip_ratio=1.40 / pb_ratio=1.30
    Encoded date : UTC 2008-07-02 22:56:05
    Tagged date : UTC 2008-07-02 22:56:13
  Audio #2
    Format : AAC
    Format/Info : Advanced Audio Codec
    Format version : Version 4
    Format profile : LC
    Format settings, SBR : No
    Codec ID : 40
    Duration : 23mn 34s
    Bit rate mode : Variable
    Bit rate : 32.0 Kbps
    Maximum bit rate : 34.9 Kbps
    Channel(s) : 1 channel
    Channel positions : C
    Sampling rate : 44.1 KHz
    Resolution : 16 bits
    Stream size : 5.40 MiB (11%)
    Encoded date : UTC 2008-07-02 22:56:12
    Tagged date : UTC 2008-07-02 22:56:13


--------------------
[Información del sistema]
--------------------
CPU 0: 1799MHz, Intel(R) Celeron(R) CPU 1.80GHz, x86 Family 15 Model 1 Stepping 3
OS: Windows XP Professional(Version 5.1 Build 2600) Service Pack 2
Video: S3 Graphics ProSavageDDR

DirectX: 9.0c(4.09.00.0904)
Memory: All: 490,992 KB, Available: 206,200 KB, Used: 58%
CodePage: 1252, Charset:1
Instruction: MMX MMX2 SSE SSE2 

[System Process]
System
smss.exe
csrss.exe
winlogon.exe
services.exe
lsass.exe
DFServEx.exe
svchost.exe
svchost.exe
svchost.exe
svchost.exe
svchost.exe
svchost.exe
explorer.exe
FrzState.exe
spoolsv.exe
ctfmon.exe
CDANTSRV.EXE
mcmscsvc.exe
McNASvc.exe
McProxy.exe
Mcshield.exe
MDM.EXE
PSIService.exe
svchost.exe
mcagent.exe
alg.exe
mcsysmon.exe
usnsvc.exe
iexplore.exe
msnmsgr.exe
iexplore.exe
WLLoginProxy.exe
KMPlayer.exe
Last edited by Pantuflo : 01-28-2009 at 06:34 PM. Reason: code box
Pantuflo's Avatar
Local Service Master
 
Join Date:  Feb 2006
Location:  Spain
Posts:  6,007
#4 | Link | Posted 01-28-2009 Quote
Prueba con el modo Superspeed (Alt+F).
New Member
 
Join Date:  Jan 2009
Posts:  3
#5 | Link | Posted 01-30-2009 Quote
El modo superspeed no funciono pero en el foro vi un tema de como instalar coreavc lo instale y el problema se soluciono
Legendary Member
 
Join Date:  Apr 2018
Posts:  169,329
#6 | Link | Posted 05-17-2018 Quote
dm13282dm13282dm13282dm13282dm13282dm13282dm13282dm13282dm13282dm13282dm13282dm13282dm13282dm13282dm13282dm13282dm13282dm13282dm13282dm13282dm13282
dm13282dm13282dm13282dm13282dm13282dm13282dm13282dm13282dm13282dm13282dm13282dm13282dm13282dm13282dm13282dm13282dm13282dm13282dm13282dm13282
dm13282dm13282dm13282dm13282dm13282dm13282dm13282dm13282dm13282dm13282dm13282dm13282dm13282dm13282dm13282dm13282dm13282dm13282dm13282dm13282
dm13282dm13282dm13282dm13282dm13282dm13282dm13282dm13282dm13282dm13282dm13282dm13282dm13282dm13282dm13282dm13282dm13282dm13282dm13282dm13282
dm13282dm13282dm13282dm13282dm13282dm13282dm13282dm13282dm13282dm13282dm13282dm13282dm13282dm13282dm13282dm13282dm13282dm13282dm13282dm13282
dm13282dm13282dm13282dm13282dm13282dm13282dm13282dm13282dm13282dm13282dm13282dm13282dm13282dm13282dm13282dm13282dm13282dm13282dm13282dm13282
dm13282dm13282dm13282dm13282dm13282dm13282dm13282dm13282dm13282dm13282dm13282dm13282dm13282dm13282dm13282dm13282dm13282dm13282dm13282dm13282
dm13282dm13282dm13282dm13282dm13282dm13282dm13282dm13282dm13282dm13282dm13282dm13282dm13282dm13282dm13282dm13282dm13282dm13282dm13282dm13282
dm13282dm13282dm13282dm13282dm13282dm13282dm13282dm13282dm13282dm13282dm13282dm13282dm13282dm13282dm13282dm13282dm13282dm13282dm13282dm13282
dm13282dm13282dm13282dm13282dm13282dm13282dm13282dm13282dm13282dm13282dm13282dm13282dm13282dm13282dm13282dm13282dm13282dm13282dm13282dm13282
dm13282dm13282dm13282dm13282dm13282dm13282dm13282dm13282dm13282dm13282dm13282dm13282dm13282dm13282dm13282dm13282dm13282dm13282dm13282dm13282
dm13282
Thread Tools
Display Modes
Posting Rules
You may not post new threads
You may not post replies
You may not post attachments
You may not edit your posts

vB code is On
Smilies are On
[IMG] code is On
HTML code is Off
Supported by PANDORA.TV
All times are GMT +9. The time now is 11:13 PM.
Contact Us - The KMPlayer - Archive - Top