KMPlayerㅣForum
Korean Download Skins Testimonials User Map RSS
Found a reproducible bug in kmp? Report it with detailed things.
View First Unread   Thread Tools Linear ModeHybrid ModeThreaded Mode
New Member
 
Join Date:  Jun 2012
Posts:  3
#1 | Link | Black screen/non-responding on start, Posted 06-12-2012 Quote
Hi! I've always used KM Player and it's been my favourite for years. A few days ago, however, a bad problem appeared-when i try to play a video KM player starts, but it remains on dark screen. If i try to do ANYTHING from it's options it becomes non-responding, and I have to shut it down from win manager.

Code:
[Primary Filtergraph]
0) - KMP Matroska Reader
1) - KMP Audio Codec
2) - KMP Video Codec
3) - KMP Audio Transform(Copy)
4) - Video Mixing Renderer9(Renderless)
5) - Default DirectSound Device

[Video Info]
Decoder - (MPEG2) KMP Video Codec(AVC1-libcodec.dll)
Format - Major Type: Video - Sub Type: YUY2
VideoInfo2: YUY2 1280X720, 16 bits

[Audio Info]
Decoder - (0x2000) KMP Audio Codec(AC3(Dolby Digital)-liba52.dll)
Format - Major Type: Audio - Sub Type: PCM
WaveFormatEx: PCM(0x1), 48000 Hz, 16 Bits, 2 Ch

[Basic Video DSP]
Internal brightness: 100%

[Advanced Video DSP]
+PictureProperty(S/W Process)
  -LumGain: 0
  -LumOffset: -256
  -Gamma: 100
  -HUE: 0
  -Saturation: 0
+Video Plugin

[Audio DSP]
+Pre amplification: Main: (100%)
+Auto Volume Control
+3D Effect: 5000
+Audio Plugin

[Subtitle Settings]
+Draw Mode(Selected): Image
+Draw Mode(In use): None
+Text Rendering Method: Rasterizer
+Support HTML Tags(SMI)

[KMPlayer]
+Version: 3.2.0.19(7 622 232, 27.3.2012 г. 05:15:48)
+libcodec.dll: (2 945 536, 21.2.2012 г. 12:27:38)
+libmplay.dll: (420 864, 21.2.2012 г. 12:27:40)
+PProcDLL.dll: 1.0.0.1(1 769 472, 25.2.2008 г. 09:07:04)
+LibDTS.dll: (178 174, 5.12.2008 г. 10:42:20)
+liba52.dll: (73 063, 5.12.2008 г. 10:41:10)
+libfaad2.dll: (335 155, 5.12.2008 г. 10:37:06)
+libmad.dll: (123 036, 5.12.2008 г. 10:42:30)
+libmpeg2.dll: (154 644, 5.12.2008 г. 10:42:42)
+theora.dll: (200 864, 5.12.2008 г. 10:43:32)
+OggVorbis.dll: (1 165 312, 25.2.2008 г. 09:07:00)
+xviddll.dll: (758 319, 5.12.2008 г. 10:58:36)
+Old_QUARTZ.DLL: 6.01.05.0319(770 048, 25.2.2008 г. 09:07:00)
+AboutDll.dll: (105 472, 3.10.2005 г. 08:12:18)
+DTView.dll: (98 304, 21.2.2012 г. 12:27:36)
+ImLoader.dll: (856 064, 25.2.2008 г. 09:05:22)
+MediaInfo.dll: 0.7.53.0(3 012 720, 12.3.2012 г. 04:27:42)
+KMPAlbumArt.dll: 2009, 1, 5, 0(2 400 256, 5.1.2009 г. 21:33:48)
+logo\KMP_Album_Art.swf: (1 159 717, 19.3.2012 г. 02:42:00)


--------------------
[File Info]
--------------------
D:\BitComet\Downloads\True.Blood.S05E01.REPACK.720p.HDTV.x264-IMMERSE\True.Blood.S05E01.REPACK.720p.HDTV.x264-IMMERSE.mkv
  General
    Unique ID : 186884026849190325631664913679083115154 (0x8C988DE97731B95E959BACCA7EA81292)
    Complete name : D:\BitComet\Downloads\True.Blood.S05E01.REPACK.720p.HDTV.x264-IMMERSE\True.Blood.S05E01.REPACK.720p.HDTV.x264-IMMERSE.mkv
    Format : Matroska
    Format version : Version 2
    File size : 1.98 GiB
    Duration : 54mn 14s
    Overall bit rate : 5 225 Kbps
    Encoded date : UTC 2012-06-11 04:41:53
    Writing application : mkvmerge v5.6.0 ('Kenya Kane') built on May 27 2012 16:44:04
    Writing library : libebml v1.2.3 + libmatroska v1.3.0
  Video #2
    ID : 2
    Format : AVC
    Format/Info : Advanced Video Codec
    Format profile : High@L4.1
    Format settings, CABAC : Yes
    Format settings, ReFrames : 5 frames
    Codec ID : V_MPEG4/ISO/AVC
    Duration : 54mn 14s
    Bit rate : 4 737 Kbps
    Width : 1 280 pixels
    Height : 720 pixels
    Display aspect ratio : 16:9
    Frame rate : 23.976 fps
    Color space : YUV
    Chroma subsampling : 4:2:0
    Bit depth : 8 bits
    Scan type : Progressive
    Bits/(Pixel*Frame) : 0.214
    Stream size : 1.79 GiB (91%)
    Writing library : x264 core 125 r2200 999b753
    Encoding settings : cabac=1 / ref=5 / deblock=1:0:0 / analyse=0x3:0x113 / me=umh / subme=8 / psy=1 / psy_rd=1.00:0.00 / mixed_ref=1 / me_range=16 / chroma_me=1 / trellis=1 / 8x8dct=1 / cqm=0 / deadzone=21,11 / fast_pskip=1 / chroma_qp_offset=-2 / threads=12 / lookahead_threads=2 / sliced_threads=0 / nr=0 / decimate=1 / interlaced=0 / bluray_compat=0 / constrained_intra=0 / bframes=3 / b_pyramid=2 / b_adapt=2 / b_bias=0 / direct=3 / weightb=1 / open_gop=0 / weightp=2 / keyint=250 / keyint_min=23 / scenecut=40 / intra_refresh=0 / rc_lookahead=50 / rc=crf / mbtree=1 / crf=18.0 / qcomp=0.60 / qpmin=0 / qpmax=69 / qpstep=4 / ip_ratio=1.40 / aq=1:1.00
    Language : English
    Default : Yes
    Forced : No
  Audio #1
    ID : 1
    Format : AC-3
    Format/Info : Audio Coding 3
    Mode extension : CM (complete main)
    Codec ID : A_AC3
    Duration : 54mn 14s
    Bit rate mode : Constant
    Bit rate : 384 Kbps
    Channel(s) : 2 channels
    Channel positions : Front: L R
    Sampling rate : 48.0 KHz
    Bit depth : 16 bits
    Compression mode : Lossy
    Stream size : 149 MiB (7%)
    Default : Yes
    Forced : No


--------------------
[System Info]
--------------------
CPU 0: 2327MHz, Intel(R) Core(TM)2 Quad CPU    Q8200  @ 2.33GHz, x86 Family 6 Model 23 Stepping 10
CPU 1: 2327MHz, Intel(R) Core(TM)2 Quad CPU    Q8200  @ 2.33GHz, x86 Family 6 Model 23 Stepping 10
CPU 2: 2327MHz, Intel(R) Core(TM)2 Quad CPU    Q8200  @ 2.33GHz, x86 Family 6 Model 23 Stepping 10
CPU 3: 2327MHz, Intel(R) Core(TM)2 Quad CPU    Q8200  @ 2.33GHz, x86 Family 6 Model 23 Stepping 10
OS: Windows NT Professional(Version 6.1 Build 7600) 
Video: Intel(R) G45/G43 Express Chipset

DirectX: 9.0c(4.09.00.0904)
Memory: All: 2 025 356 KB, Available: 655 024 KB, Used: 68%
CodePage: 1251, Charset:1
Instruction: MMX MMX2 SSE SSE2 SSE3 64Bits 

[System Process]
System
smss.exe
avgchsvx.exe
csrss.exe
csrss.exe
wininit.exe
services.exe
winlogon.exe
lsass.exe
lsm.exe
svchost.exe
ASCService.exe
svchost.exe
svchost.exe
svchost.exe
svchost.exe
svchost.exe
svchost.exe
spoolsv.exe
svchost.exe
ApplicationUpdater.exe
avgwdsvc.exe
HPSIsvc.exe
openvpnas.exe
hsssrv.exe
hsswd.exe
NitroPDFReaderDriverService2.exe
PandoraService.exe
taskhost.exe
sppsvc.exe
svchost.exe
AVGIDSAgent.exe
avgnsx.exe
dwm.exe
explorer.exe
igfxtray.exe
hkcmd.exe
igfxpers.exe
RtHDVCpl.exe
GrooveMonitor.exe
avgtray.exe
SearchSettings.exe
jusched.exe
DTLite.exe
NokiaOviSuite.exe
AVGIDSMonitor.exe
FreeRAM XP Pro.exe
ASCTray.exe
ServiceLayer.exe
SearchIndexer.exe
PresentationFontCache.exe
NokiaMServer.exe
svchost.exe
avgrsx.exe
avgcsrvx.exe
uTorrent.exe
NclUSBSrv.exe
slui.exe
jucheck.exe
firefox.exe
plugin-container.exe
plugin-container.exe
taskeng.exe
openvpntray.exe
explorer.exe
explorer.exe
rundll32.exe
audiodg.exe
KMPlayer.exe
Is it okay to paste it like this, or how should I do it if it's not? Please help me, I love km player and all it's features!
Last edited by Pantuflo : 06-12-2012 at 06:27 AM. Reason: CODE tags
New Member
 
Join Date:  Jun 2012
Posts:  3
#2 | Link | Posted 06-12-2012 Quote
Also, it plays audio files just fine, no problem there.
Pantuflo's Avatar
Local Service Master
 
Join Date:  Feb 2006
Location:  Spain
Posts:  6,007
#3 | Link | Posted 06-12-2012 Quote
You can try several things:

- Preferences (F2) -> Splitter -> select Gabest Matroska splitter.

If the problem persists, try:

- Preferences (F2) -> Internal video decoder -> select H.264 -> disable.

or

- Preferences (F2) -> Internal audio decoder -> disable AC3.
New Member
 
Join Date:  Jun 2012
Posts:  3
#4 | Link | Posted 06-12-2012 Quote
Thank's a lot, that did the trick! There's one more issue, though not that important- the colors are a bit too bright, and neither the software, nor the hardware controls of the player change anything. Can you help me with that too?
Pantuflo's Avatar
Local Service Master
 
Join Date:  Feb 2006
Location:  Spain
Posts:  6,007
#5 | Link | Posted 06-12-2012 Quote
There are two possible fixes for that,

- The first one is useful when there is a general lack of contrast and "the black is not black enough". In that case you can enable a pixel shader filter:

1) Go to Preferences (F2) -> Video processing -> and select:
>> Video renderer: VMR9 Renderless or EVR
>> VMR Renderless setup: use 3D texture surfaces
>> VMR9 Video scaler: Bicubic A=-0.60 (optional I think)
2) Then go to right-click -> Video advanced -> VMR Pixel Shader and select Remap 16_235.

- The second one is to make the software color controls work, to do that go to Preferences (F2) -> Video processing -> General tab and select Condition -> Always use.
Thread Tools
Display Modes
Posting Rules
You may not post new threads
You may not post replies
You may not post attachments
You may not edit your posts

vB code is On
Smilies are On
[IMG] code is On
HTML code is Off
Supported by PANDORA.TV
All times are GMT +9. The time now is 07:38 PM.
Contact Us - The KMPlayer - Archive - Top