KMPlayerㅣForum
Korean Download Skins Testimonials User Map RSS
Found a reproducible bug in kmp? Report it with detailed things.
 
  Thread Tools Linear ModeHybrid ModeThreaded Mode
intergalacticninja's Avatar
Member
 
Join Date:  Jul 2008
Posts:  46
#1 | Link | [fixed] v1441:White noise-like sounds on videos-noticeable especially on loud parts, Posted 06-22-2011
Upon upgrading to 3.0.0.1441, I get white noise-like sounds on FLV and MP4 videos (especially the loud parts; both have audio encoded as AAC), as if my speaker can't handle those sounds (haven't fully tested other types of videos, but they might have the same issue too). The same videos sound fine with KMPlayer 3.0.0.1440 and VLC Player.

I tried resetting all my settings, to no avail. This is possibly the same issue as the issue posted in these threads:
Serious Sound Problem
http://www.kmplayer.com/forums/showthread.php?t=19747
The KMPlayer 3.0.0.1441 AC3 and Now AAC Audio prblms!!
http://www.kmplayer.com/forums/showthread.php?t=19754


Sample videos:
Download the .FLV 480p versions with FastestTube (Opera, Firefox, Chrome, Safari, IE) http://fastesttube.kwizzu.com/ OR Video DownloadHelper (Firefox) https://addons.mozilla.org/en-US/fir...ownloadhelper/ of these Youtube videos:
http://www.youtube.com/watch?v=b7uGhoNoN4A
http://www.youtube.com/watch?v=SspXoZQEL88

Ctrl-tab info for both videos:
Code:
1st video:
[Primary Filtergraph]
0) - KMP FLV Source
1) - KMP Audio Codec
2) - CoreAVC Video Decoder
3) - KMP Audio Transform(Copy)
4) - Video Mixing Renderer9(Renderless)
5) - Default DirectSound Device

[Video Info]
Decoder - (MPEG2) CoreAVC Video Decoder
Format - Major Type: Video - Sub Type: YV12
VideoInfo2: YV12 896X-480, 12 bits

[Audio Info]
Decoder - (0xAAC0) KMP Audio Codec(AAC 1-libcodec.dll)
Format - Major Type: Audio - Sub Type: PCM
WaveFormatEx: PCM(0x1), 44100 Hz, 16 Bits, 2 Ch

[Basic Video DSP]
Internal brightness: 100%

[Advanced Video DSP]
+Video Plugin

[Audio DSP]
+Pre amplification: Main: (100%)
+Auto Volume Control
+Audio Plugin

[Subtitle Settings]
+Draw Mode(Selected): VMR
+Draw Mode(In use): On Overlay
+Text Rendering Method: Rasterizer
+Support HTML Tags(SMI)

[KMPlayer]
+Version: 3.0.0.1441(6,982,144, 6/20/2011 1:05:08 PM)
+libcodec.dll: (4,799,186, 6/15/2011 3:43:00 PM)
+libmplay.dll: (431,616, 7/14/2008 10:31:44 AM)
+PProcDLL.dll: 1.0.0.1(1,769,472, 2/25/2008 2:07:04 PM)
+LibDTS.dll: (178,174, 12/5/2008 3:42:20 PM)
+liba52.dll: (73,063, 12/5/2008 3:41:10 PM)
+libfaad2.dll: (335,155, 12/5/2008 3:37:06 PM)
+libmad.dll: (123,036, 12/5/2008 3:42:30 PM)
+libmpeg2.dll: (154,644, 12/5/2008 3:42:42 PM)
+theora.dll: (200,864, 12/5/2008 3:43:32 PM)
+OggVorbis.dll: (1,165,312, 2/25/2008 2:07:00 PM)
+xviddll.dll: (758,319, 12/5/2008 3:58:36 PM)
+Old_QUARTZ.DLL: 6.01.05.0319(770,048, 2/25/2008 2:07:00 PM)
+AboutDll.dll: (105,472, 10/3/2005 1:12:18 PM)
+DTView.dll: (104,448, 2/25/2008 2:04:36 PM)
+ImLoader.dll: (856,064, 2/25/2008 2:05:22 PM)
+MediaInfo.dll: 0.7.45.0(2,850,584, 6/15/2011 6:28:00 PM)
+KMPAlbumArt.dll: 2009, 1, 5, 0(2,400,256, 1/6/2009 2:33:48 AM)
+logo\KMP_Album_Art.swf: (169,320, 9/10/2009 12:26:22 PM)


--------------------
[File Info]
--------------------
C:\dirRemoved\Henry Bowers - Swing Batter Batter Swing (Official Video).flv
  General
    Complete name : C:\dirRemoved\Henry Bowers - Swing Batter Batter Swing (Official Video).flv
    Format : Flash Video
    File size : 28.1 MiB
    Duration : 4mn 18s
    Overall bit rate : 913 Kbps
    httphostheader : <serverremoved>.c.youtube.com
  Video
    Format : AVC
    Format/Info : Advanced Video Codec
    Format profile : Main@L3.0
    Format settings, CABAC : Yes
    Format settings, ReFrames : 3 frames
    Codec ID : 7
    Duration : 4mn 18s
    Bit rate : 776 Kbps
    Width : 854 pixels
    Height : 480 pixels
    Display aspect ratio : 16:9
    Frame rate mode : Constant
    Frame rate : 25.000 fps
    Color space : YUV
    Chroma subsampling : 4:2:0
    Bit depth : 8 bits
    Scan type : Progressive
    Bits/(Pixel*Frame) : 0.076
    Stream size : 23.9 MiB (85%)
  Audio
    Format : AAC
    Format/Info : Advanced Audio Codec
    Format profile : LC
    Codec ID : 10
    Duration : 4mn 18s
    Bit rate : 129 Kbps
    Channel(s) : 2 channels
    Channel positions : Front: L R
    Sampling rate : 44.1 KHz
    Compression mode : Lossy
    Stream size : 3.96 MiB (14%)


--------------------
[System Info]
--------------------
CPU 0: 1700MHz, Intel(R) Celeron(R) M processor         1.70GHz, x86 Family 6 Model 13 Stepping 8
OS: Windows NT Professional(Version 6.1 Build 7601) Service Pack 1
Video: ATI RADEON XPRESS 200M Series  

DirectX: 9.0c(4.09.00.0904)
Memory: All: 2,097,152 KB, Available: 1,768,408 KB, Used: 16%
CodePage: 1252, Charset:1
Instruction: MMX MMX2 SSE SSE2 

[System Process]
System
smss.exe
csrss.exe
wininit.exe
csrss.exe
services.exe
lsass.exe
lsm.exe
winlogon.exe
svchost.exe
PresentationFontCache.exe
svchost.exe
svchost.exe
svchost.exe
svchost.exe
audiodg.exe
svchost.exe
svchost.exe
svchost.exe
ASLDRSrv.exe
Soluto.exe
dwm.exe
explorer.exe
spoolsv.exe
sched.exe
taskhost.exe
avguard.exe
spd.exe
HControl.exe
DCService.exe
srvany.exe
DCSHelper.exe
KMService.exe
conhost.exe
SolutoService.exe
ATKOSD.exe
svchost.exe
avshadow.exe
conhost.exe
avgnt.exe
networx.exe
cfosspeed.exe
sidebar.exe
3RVX.exe
uTorrent.exe
DTLite.exe
ClipCube.exe
PCSuite.exe
Launchy.exe
sizer.exe
Rainlendar.exe
ObjectDock.exe
opera.exe
svchost.exe
SearchIndexer.exe
alg.exe
ServiceLayer.exe
NclUSBSrv.exe
NclIrSrv.exe
NclRSSrv.exe
NclMSBTSrvEx.exe
WUDFHost.exe
wmpnetwk.exe
explorer.exe
Notepad2.exe
winamp.exe
KMPlayer.exe
---
2nd video:

[Primary Filtergraph]
0) - KMP FLV Source
1) - KMP Audio Codec
2) - CoreAVC Video Decoder
3) - KMP Audio Transform(Copy)
4) - Video Mixing Renderer9(Renderless)
5) - Default DirectSound Device

[Video Info]
Decoder - (MPEG2) CoreAVC Video Decoder
Format - Major Type: Video - Sub Type: YV12
VideoInfo2: YV12 896X-480, 12 bits

[Audio Info]
Decoder - (0xAAC0) KMP Audio Codec(AAC 1-libcodec.dll)
Format - Major Type: Audio - Sub Type: PCM
WaveFormatEx: PCM(0x1), 44100 Hz, 16 Bits, 2 Ch

[Basic Video DSP]
Internal brightness: 100%

[Advanced Video DSP]
+Video Plugin

[Audio DSP]
+Pre amplification: Main: (100%)
+Auto Volume Control
+Audio Plugin

[Subtitle Settings]
+Draw Mode(Selected): VMR
+Draw Mode(In use): On Overlay
+Text Rendering Method: Rasterizer
+Support HTML Tags(SMI)

[KMPlayer]
+Version: 3.0.0.1441(6,982,144, 6/20/2011 1:05:08 PM)
+libcodec.dll: (4,799,186, 6/15/2011 3:43:00 PM)
+libmplay.dll: (431,616, 7/14/2008 10:31:44 AM)
+PProcDLL.dll: 1.0.0.1(1,769,472, 2/25/2008 2:07:04 PM)
+LibDTS.dll: (178,174, 12/5/2008 3:42:20 PM)
+liba52.dll: (73,063, 12/5/2008 3:41:10 PM)
+libfaad2.dll: (335,155, 12/5/2008 3:37:06 PM)
+libmad.dll: (123,036, 12/5/2008 3:42:30 PM)
+libmpeg2.dll: (154,644, 12/5/2008 3:42:42 PM)
+theora.dll: (200,864, 12/5/2008 3:43:32 PM)
+OggVorbis.dll: (1,165,312, 2/25/2008 2:07:00 PM)
+xviddll.dll: (758,319, 12/5/2008 3:58:36 PM)
+Old_QUARTZ.DLL: 6.01.05.0319(770,048, 2/25/2008 2:07:00 PM)
+AboutDll.dll: (105,472, 10/3/2005 1:12:18 PM)
+DTView.dll: (104,448, 2/25/2008 2:04:36 PM)
+ImLoader.dll: (856,064, 2/25/2008 2:05:22 PM)
+MediaInfo.dll: 0.7.45.0(2,850,584, 6/15/2011 6:28:00 PM)
+KMPAlbumArt.dll: 2009, 1, 5, 0(2,400,256, 1/6/2009 2:33:48 AM)
+logo\KMP_Album_Art.swf: (169,320, 9/10/2009 12:26:22 PM)


--------------------
[File Info]
--------------------
C:\dirRemoved\20101222_AMilonakis_Soul Khan _ Dirtbag Dan vs ATM _ Carter Deems.flv
  General
    Complete name : C:\dirRemoved\20101222_AMilonakis_Soul Khan _ Dirtbag Dan vs ATM _ Carter Deems.flv
    Format : Flash Video
    File size : 146 MiB
    Duration : 16mn 36s
    Overall bit rate : 1 232 Kbps
    httphostheader : <serverremoved>.c.youtube.com
  Video
    Format : AVC
    Format/Info : Advanced Video Codec
    Format profile : Main@L3.0
    Format settings, CABAC : Yes
    Format settings, ReFrames : 3 frames
    Format settings, GOP : M=1, N=48
    Codec ID : 7
    Duration : 16mn 36s
    Bit rate : 1 154 Kbps
    Width : 854 pixels
    Height : 480 pixels
    Display aspect ratio : 16:9
    Frame rate mode : Constant
    Frame rate : 23.976 fps
    Color space : YUV
    Chroma subsampling : 4:2:0
    Bit depth : 8 bits
    Scan type : Progressive
    Bits/(Pixel*Frame) : 0.117
    Stream size : 137 MiB (94%)
  Audio
    Format : AAC
    Format/Info : Advanced Audio Codec
    Format profile : LC
    Codec ID : 10
    Duration : 16mn 36s
    Bit rate : 69.7 Kbps
    Channel(s) : 2 channels
    Channel positions : Front: L R
    Sampling rate : 44.1 KHz
    Compression mode : Lossy
    Stream size : 8.27 MiB (6%)


--------------------
[System Info]
--------------------
CPU 0: 1700MHz, Intel(R) Celeron(R) M processor         1.70GHz, x86 Family 6 Model 13 Stepping 8
OS: Windows NT Professional(Version 6.1 Build 7601) Service Pack 1
Video: ATI RADEON XPRESS 200M Series  

DirectX: 9.0c(4.09.00.0904)
Memory: All: 2,097,152 KB, Available: 1,778,700 KB, Used: 15%
CodePage: 1252, Charset:1
Instruction: MMX MMX2 SSE SSE2 

[System Process]
<content removed; same as video 1>
Edit: Adding x8800's Ctrl-tab video info from this thread: Serious Sound Problem http://www.kmplayer.com/forums/showthread.php?t=19747 :

http://www.kmplayer.com/forums/attac...1&d=1308690732
Last edited by intergalacticninja : 06-25-2011 at 04:47 PM.
Thread Tools
Display Modes
Posting Rules
You may not post new threads
You may not post replies
You may not post attachments
You may not edit your posts

vB code is On
Smilies are On
[IMG] code is On
HTML code is Off
Supported by PANDORA.TV
All times are GMT +9. The time now is 01:07 AM.
Contact Us - The KMPlayer - Archive - Top