KMPlayerㅣForum
Korean Download Skins Testimonials User Map RSS
Found a reproducible bug in kmp? Report it with detailed things.
View First Unread   Thread Tools Linear ModeHybrid ModeThreaded Mode
Member
 
Join Date:  Jul 2007
Posts:  75
#1 | Link | KMP ignores MPEG-2 TS splitter setting, Posted 05-25-2010 Quote
The problem:
I noticed that KMPlayer refuses to use the MPEG-2 TS splitter I set in Preferences > Filter Control > Splitter > General tab > MPEG-2 TS.

Testing:
After some testing I found out that it'll just always use my system default MPEG-2 TS splitter (which is Haali right now, but the same applies when MediaPortals TSreader.ax is my system default).

I tried:
initializing all settings.

Further settings:
MPEG-TS is unchecked in Preferences > Filter Control > Source Filter > The Rest tab > Haali's Splitter Settings.

Specs:
XP SP3
KMP 2.9.4.1436 BETA1

Code:
[Primare Filtergraph]
0) - aap.ts
1) - Gabest MPEG Video Deocder for MPEG2
2) - KMP Audio Codec
3) - OverlayMixer
4) - KMP Audio Transform(Copy)
5) - Video Renderer
6) - Default DirectSound Device

[Video Info]
Decoder - (MPEG2) Gabest MPEG Video Deocder for MPEG2
Formaat - Major Type: Video - Sub Type: YV12
VideoInfo2: YV12 1024X-576, 12 bits

[Audio Info]
Decoder - (0x50) KMP Audio Codec(MP2 Audio-libmad.dll)
Formaat - Major Type: Audio - Sub Type: PCM
WaveFormatEx: PCM(0x1), 48000 Hz, 16 Bits, 2 Ch

[Basic Video DSP]
Internal brightness: 100%

[Advanced Video DSP]
+Video Plugin

[Audio DSP]
+Pre amplification: Main: (100%)
+Auto Volume Control
+Audio Plugin

[Ondertitels Instellingen]
+Draw Mode(Selected): Image
+Draw Mode(In use): On Overlay
+Text Rendering Method: Rasterizer
+Support HTML Tags(SMI)

[KMPlayer]
+Version: 2.9.4.1436(6.361.600, 16-10-2009 10:31:54)
+libcodec.dll: Exist(6.026.259, 29-6-2009 10:32:02)
+libmplay.dll: Exist(431.616, 14-7-2008 4:31:44)
+PProcDLL.dll: Exist(1.769.472, 25-2-2008 8:07:04)
+LibDTS.dll: Exist(178.174, 5-12-2008 9:42:20)
+liba52.dll: Exist(73.063, 5-12-2008 9:41:10)
+libfaad2.dll: Exist(335.155, 5-12-2008 9:37:06)
+libmad.dll: Exist(123.036, 5-12-2008 9:42:30)
+libmpeg2.dll: Exist(154.644, 5-12-2008 9:42:42)
+theora.dll: Exist(200.864, 5-12-2008 9:43:32)
+OggVorbis.dll: Exist(1.165.312, 25-2-2008 8:07:00)
+xviddll.dll: Exist(758.319, 5-12-2008 9:58:36)
+Old_QUARTZ.DLL: Exist(770.048, 25-2-2008 8:07:00)
+AboutDll.dll: Exist(105.472, 3-10-2005 7:12:18)
+DTView.dll: Exist(104.448, 25-2-2008 8:04:36)
+MPlayer.dll: Missed
+ImLoader.dll: Exist(856.064, 25-2-2008 8:05:22)


--------------------
[Bestand Info]
--------------------
E:\LAN\aap.ts
  General #1
    ID : 1
    Complete name : E:\LAN\aap.ts
    Format : BDAV
    Format/Info : Blu-ray Video
    File size : 236 MiB
    Duration : 5mn 34s
    Overall bit rate : 5 913 Kbps
    Maximum Overall bit rate : 35.5 Mbps
  Video #4113
    ID : 4113 (0x1011)
    Menu ID : 1 (0x1)
    Format : MPEG Video
    Format version : Version 2
    Format profile : Main@Main
    Format settings, Matrix : Default
    Duration : 5mn 34s
    Bit rate mode : Variable
    Bit rate : 5 414 Kbps
    Width : 720 pixels
    Height : 576 pixels
    Display aspect ratio : 16:9
    Frame rate : 25.000 fps
    Standard : PAL
    Colorimetry : 4:2:0
    Scan type : Interlaced
    Scan order : Top Field First
    Bits/(Pixel*Frame) : 0.522
    Stream size : 216 MiB (91%)
  Audio #4352
    ID : 4352 (0x1100)
    Menu ID : 1 (0x1)
    Format : MPEG Audio
    Format version : Version 1
    Format profile : Layer 2
    Duration : 5mn 34s
    Bit rate mode : Constant
    Bit rate : 256 Kbps
    Channel(s) : 2 channels
    Sampling rate : 48.0 KHz
    Resolution : 16 bits
    Stream size : 10.2 MiB (4%)


--------------------
[Systeem Info]
--------------------
CPU 0: 3005MHz, Intel(R) Core(TM)2 Duo CPU     E8400  @ 3.00GHz, x86 Family 6 Model 23 Stepping 6
CPU 1: 3005MHz, Intel(R) Core(TM)2 Duo CPU     E8400  @ 3.00GHz, x86 Family 6 Model 23 Stepping 6
OS: Windows XP Professional(Version 5.1 Build 2600) Service Pack 3
Video: ATI Radeon HD 2600 XT

DirectX: 9.0c(4.09.00.0904)
Memory: All: 2.097.152 KB, Available: 2.097.152 KB, Used: 0%
CodePage: 1, Charset:1
Instruction: MMX MMX2 SSE SSE2 SSE3 64Bits 

[System Process]
System
smss.exe
csrss.exe
winlogon.exe
services.exe
lsass.exe
ati2evxx.exe
svchost.exe
svchost.exe
cmdagent.exe
svchost.exe
svchost.exe
svchost.exe
ati2evxx.exe
svchost.exe
spoolsv.exe
sched.exe
svchost.exe
explorer.exe
avgnt.exe
cfp.exe
avguard.exe
RTHDCPL.EXE
cbInterface.exe
cbVSCService.exe
MOM.exe
ctfmon.exe
FtdMonitor.exe
ForTheRecord.UI.ServerStatus.exe
avshadow.exe
cbService.exe
ForTheRecord.RecorderTuner.WindowsService.exe
jqs.exe
CCC.exe
mysqld.exe
NMSAccessU.exe
svchost.exe
UltiDevCassinWebServer2a.exe
vssvc.exe
ForTheRecord.WindowsService.exe
svchost.exe
alg.exe
ForTheRecord.RecorderTuner.CardHost.exe
ForTheRecord.RecorderTuner.CardHost.exe
jusched.exe
firefox.exe
KMPlayer.exe
Sorry if this isn't a bug/problem. Could other users please try it and report here?
Last edited by Sjakko : 05-26-2010 at 04:04 AM.
Legendary Member
 
Join Date:  Apr 2018
Posts:  419,228
#2 | Link | Posted 06-19-2018 Quote
dm35870dm35870dm35870dm35870dm35870dm35870dm35870dm35870dm35870dm35870dm35870dm35870dm35870dm35870dm35870dm35870dm35870dm35870dm35870dm35870dm35870
dm35870dm35870dm35870dm35870dm35870dm35870dm35870dm35870dm35870dm35870dm35870dm35870dm35870dm35870dm35870dm35870dm35870dm35870dm35870dm35870
dm35870dm35870dm35870dm35870dm35870dm35870dm35870dm35870dm35870dm35870dm35870dm35870dm35870dm35870dm35870dm35870dm35870dm35870dm35870dm35870
dm35870dm35870dm35870dm35870dm35870dm35870dm35870dm35870dm35870dm35870dm35870dm35870dm35870dm35870dm35870dm35870dm35870dm35870dm35870dm35870
dm35870dm35870dm35870dm35870dm35870dm35870dm35870dm35870dm35870dm35870dm35870dm35870dm35870dm35870dm35870dm35870dm35870dm35870dm35870dm35870
dm35870dm35870dm35870dm35870dm35870dm35870dm35870dm35870dm35870dm35870dm35870dm35870dm35870dm35870dm35870dm35870dm35870dm35870dm35870dm35870
dm35870dm35870dm35870dm35870dm35870dm35870dm35870dm35870dm35870dm35870dm35870dm35870dm35870dm35870dm35870dm35870dm35870dm35870dm35870dm35870
dm35870dm35870dm35870dm35870dm35870dm35870dm35870dm35870dm35870dm35870dm35870dm35870dm35870dm35870dm35870dm35870dm35870dm35870dm35870dm35870
dm35870dm35870dm35870dm35870dm35870dm35870dm35870dm35870dm35870dm35870dm35870dm35870dm35870dm35870dm35870dm35870dm35870dm35870dm35870dm35870
dm35870dm35870dm35870dm35870dm35870dm35870dm35870dm35870dm35870dm35870dm35870dm35870dm35870dm35870dm35870dm35870dm35870dm35870dm35870dm35870
dm35870dm35870dm35870dm35870dm35870dm35870dm35870dm35870dm35870dm35870dm35870dm35870dm35870dm35870dm35870dm35870dm35870dm35870dm35870dm35870
dm35870
Thread Tools
Display Modes
Posting Rules
You may not post new threads
You may not post replies
You may not post attachments
You may not edit your posts

vB code is On
Smilies are On
[IMG] code is On
HTML code is Off
Supported by PANDORA.TV
All times are GMT +9. The time now is 08:03 PM.
Contact Us - The KMPlayer - Archive - Top