KMPlayerㅣForum
Korean Download Skins Testimonials User Map RSS
Page 1 of 2: 1 2 >
View First Unread   Thread Tools Linear ModeHybrid ModeThreaded Mode
New Member
 
Join Date:  Dec 2011
Posts:  6
#1 | Link | مشکل در اجرای amr-3gp-mpg, Posted 06-19-2012 Quote
سلام دوست عزیز قبل از اینکه مشکلم رو بگم واقعا از زحمات بی دریغت ممنونم و ازت تشکر میکنم.

من جدیداً ویندوز سون 64 بیت نصب کردم.بعد از نصب کا.ام.پی ورژن3.2.0.19 با مشکلات زیر مواجه هستم ممنون میشم کمکم کنید.

1.Format (amr) ejra nemishavand
2.format (3gp) bedone seda ejra mishavad
3.format (mpg) emkane aghab ya jolo bordane film vojod nadarad.

اینم مشخصات اجراش
Code:
[فيلترهای اوليه]
0) - spider man 3.mpg
1) - KMP MPEG2(PS) Splitter
2) - KMP Audio Codec
3) - KMP Video Codec
4) - KMP Audio Transform(Copy)
5) - Video Mixing Renderer9(Windowed)
6) - Default DirectSound Device

[اطلاعات تصوير]
ديکودر - (MPEG2) KMP Video Codec(MPEG2-libmpeg2.dll)
نوع - Major Type: Video - Sub Type: YUY2
VideoInfo2: YUY2 768X-576, 16 bits

[اطلاعات صدا]
ديکودر - (0x50) KMP Audio Codec(MP2 Audio-libmad.dll)
نوع - Major Type: Audio - Sub Type: PCM
WaveFormatEx: PCM(0x1), 48000 Hz, 16 Bits, 2 Ch

[پردازش ساده تصوير]
Internal brightness: 100%

[پردازش پيشرفته تصوير]
+Video Plugin

[پردازش صدا]
+Pre amplification: Main: (100%)
+Auto Volume Control
+3D Effect: 5000
+Audio Plugin

[تنظيمات زيرنويس]
+Draw Mode(Selected): Image
+Draw Mode(In use): None
+Text Rendering Method: Rasterizer
+Support HTML Tags(SMI)

[KMPlayer]
+Version: 3.2.0.19(7,622,232, 03/27/2012 06:45:48 ق.ظ)
+libcodec.dll: (2,945,536, 02/21/2012 01:57:38 ب.ظ)
+libmplay.dll: (420,864, 02/21/2012 01:57:40 ب.ظ)
+PProcDLL.dll: 1.0.0.1(1,769,472, 02/25/2008 10:37:04 ق.ظ)
+LibDTS.dll: (178,174, 12/05/2008 12:12:20 ب.ظ)
+liba52.dll: (73,063, 12/05/2008 12:11:10 ب.ظ)
+libfaad2.dll: (335,155, 12/05/2008 12:07:06 ب.ظ)
+libmad.dll: (123,036, 12/05/2008 12:12:30 ب.ظ)
+libmpeg2.dll: (154,644, 12/05/2008 12:12:42 ب.ظ)
+theora.dll: (200,864, 12/05/2008 12:13:32 ب.ظ)
+OggVorbis.dll: (1,165,312, 02/25/2008 10:37:00 ق.ظ)
+xviddll.dll: (758,319, 12/05/2008 12:28:36 ب.ظ)
+Old_QUARTZ.DLL: 6.01.05.0319(770,048, 02/25/2008 10:37:00 ق.ظ)
+AboutDll.dll: (105,472, 10/03/2005 09:42:18 ق.ظ)
+DTView.dll: (98,304, 02/21/2012 01:57:36 ب.ظ)
+ImLoader.dll: (856,064, 02/25/2008 10:35:22 ق.ظ)
+MediaInfo.dll: 0.7.53.0(3,012,720, 03/12/2012 05:57:42 ق.ظ)
+KMPAlbumArt.dll: 2009, 1, 5, 0(2,400,256, 01/05/2009 11:03:48 ب.ظ)
+logo\KMP_Album_Art.swf: (1,159,717, 03/19/2012 04:12:00 ق.ظ)


--------------------
[اطلاعات فايل]
--------------------
D:\VIDEO\FILM\New\spider man 3.mpg
  General
    Complete name : D:\VIDEO\FILM\New\spider man 3.mpg
    Format : MPEG-PS
    File size : 3.81 GiB
    Duration : 3h 7mn
    Overall bit rate mode : Variable
    Overall bit rate : 2 912 Kbps
  Video #224
    ID : 224 (0xE0)
    Format : MPEG Video
    Format version : Version 2
    Format profile : Main@Main
    Format settings, BVOP : Yes
    Format settings, Matrix : Custom
    Format settings, GOP : M=3, N=12
    Duration : 3h 7mn
    Bit rate mode : Variable
    Bit rate : 2 726 Kbps
    Maximum bit rate : 10 000 Kbps
    Width : 720 pixels
    Height : 576 pixels
    Display aspect ratio : 4:3
    Frame rate : 25.000 fps
    Standard : PAL
    Color space : YUV
    Chroma subsampling : 4:2:0
    Bit depth : 8 bits
    Scan type : Interlaced
    Scan order : Top Field First
    Compression mode : Lossy
    Bits/(Pixel*Frame) : 0.263
    Stream size : 3.57 GiB (94%)
  Audio #192
    ID : 192 (0xC0)
    Format : MPEG Audio
    Format version : Version 1
    Format profile : Layer 2
    Duration : 3h 7mn
    Bit rate mode : Constant
    Bit rate : 128 Kbps
    Channel(s) : 2 channels
    Sampling rate : 48.0 KHz
    Compression mode : Lossy
    Delay relative to video : -860ms
    Stream size : 172 MiB (4%)


--------------------
[اطلاعات سيستم]
--------------------
CPU 0: 2793MHz, Intel(R) Core(TM)2 Duo CPU     T9600  @ 2.80GHz, Intel64 Family 6 Model 23 Stepping 10
CPU 1: 2793MHz, Intel(R) Core(TM)2 Duo CPU     T9600  @ 2.80GHz, Intel64 Family 6 Model 23 Stepping 10
OS: Windows NT Professional(Version 6.1 Build 7601) Service Pack 1
Video: ATI Mobility Radeon HD 4570

DirectX: 9.0c(4.09.00.0904)
Memory: All: 4,158,312 KB, Available: 2,740,836 KB, Used: 34%
CodePage: 1256, Charset:1
Instruction: MMX MMX2 SSE SSE2 SSE3 64Bits 

[System Process]
System
smss.exe
csrss.exe
wininit.exe
csrss.exe
services.exe
lsass.exe
lsm.exe
svchost.exe
winlogon.exe
svchost.exe
atiesrxx.exe
svchost.exe
svchost.exe
svchost.exe
svchost.exe
atieclxx.exe
svchost.exe
spoolsv.exe
svchost.exe
btwdins.exe
ekrn.exe
svchost.exe
openvpnas.exe
hsssrv.exe
hsswd.exe
PandoraService.exe
taskhost.exe
dwm.exe
explorer.exe
egui.exe
SynTPEnh.exe
sidebar.exe
BTTray.exe
MOM.exe
CCC.exe
SearchIndexer.exe
svchost.exe
svchost.exe
BTStackServer.exe
wmpnetwk.exe
SynTPHelper.exe
BluetoothHeadsetProxy.exe
openvpntray.exe
svchost.exe
svchost.exe
firefox.exe
splwow64.exe
WINWORD.EXE
audiodg.exe
iexplore.exe
iexplore.exe
taskhost.exe
KMPlayer.exe
Last edited by 3dmahdi : 06-19-2012 at 10:25 PM.
3dmahdi's Avatar
Persian Moderator
 
Join Date:  May 2008
Location:  Iran,Tehran
Posts:  551
#2 | Link | Posted 06-19-2012 Quote

سلام
خیلی ممنون بابت لطفتون
‫1و2- دکمه F2 رو بزنید و به بخش "دیکودر صدای داخلی" برید و تیک کنار AMR رو بردارید. این دیکودر داخلی مشکل داره
‫3- دکمه F2 رو بزنید و به بخش "قسمت کننده" برید و گزینه مقابل Mpeg2-PS رو تغییر بدید.(Gabest خوبه)
3dmahdi's Avatar
Persian Moderator
 
Join Date:  May 2008
Location:  Iran,Tehran
Posts:  551
#3 | Link | Posted 06-20-2012 Quote

مشکل رو به برنامه نویس اطلاع دادم. این مشکل توی نسخه بعدی که تا چند روز دیگه منتشر میشه برطرف شد
ممنون بابت اینکه مشکل رو گزارش کردید
New Member
 
Join Date:  Dec 2011
Posts:  6
#4 | Link | Posted 06-24-2012 Quote
آقا مهدی کارهایی که گفتید رو انجام دادم ولی فقط مشکل شماره 3 حل شد
3dmahdi's Avatar
Persian Moderator
 
Join Date:  May 2008
Location:  Iran,Tehran
Posts:  551
#5 | Link | Posted 06-24-2012 Quote
‫يه فايل 3GP پخش كنيد و بعد اطلاعات Ctrl+Tab رو بهم بدين.
New Member
 
Join Date:  Jun 2012
Posts:  3
#6 | Link | Posted 06-26-2012 Quote
با سلام خدمت همه دوستان من فعلا اين مشکل رو اينجوري حل کردم
1 - کليد F2 را فشار داده و به قسمت " مديذيت فيلترهاي دلخواه" برويد.
2 - کليد " افزودن فيلتر ثبت شده" را فشار داده و فيلتر ffdshow Audio decoder را اضافه کنيد.
3 - روي فيلتر فقو دابل کليک کنيد و در قسمت AMR گزينه disable را به گزينه libavcodec تغيير دهيد.
4 - گزينه " استفاده اجباري " را نيز انتخاب کنيد.

مشکل من که اينجوري حل شد اميدوارم مشکل شما هم حل شود.
New Member
 
Join Date:  Jun 2012
Posts:  3
#8 | Link | Posted 06-26-2012 Quote
با سلام دوباره يک راه حل راحتتري هم پيدا کردم که خدمتتان عرض ميکنم
در قسمت تنظيمات و در قسمت کنترل فيلترها جلوي quick time پسوند فايلهاي AMR و 3gp را اضافه کنيد.

http://www.4shared.com/photo/zz507ocy/3-_online.html
New Member
 
Join Date:  Dec 2011
Posts:  6
#9 | Link | 3gp, Posted 06-30-2012 Quote
‫آقا مهدی اینم اطلاعات اجرای فایل 3gp که خواسته بودین.

[فيلترهای اوليه]
0) - KMP MOV/MP4 Source
1) - KMP Audio Codec(low merit)
2) - KMP Video Codec
3) - KMP Video Transform
4) - KMP Audio Transform(Copy)
5) - Video Mixing Renderer9(Renderless)
6) - Default DirectSound Device

[اطلاعات تصوير]
ديکودر - (s263) KMP Video Codec(S263-libcodec.dll)
نوع - Major Type: Video - Sub Type: YUY2
VideoInfo: YUY2 176X144, 16 bits
نوع - Major Type: Video - Sub Type: YV12
VideoInfo: YV12 1024X-480, 12 bits

[اطلاعات صدا]
ديکودر - (0xFE) KMP Audio Codec(low merit)(AMR_NB-libcodec.dll)
نوع - Major Type: Audio - Sub Type: PCM
WaveFormatEx: PCM(0x1), 8000 Hz, 16 Bits, 2 Ch

[پردازش ساده تصوير]
Internal brightness: 100%

[پردازش پيشرفته تصوير]
+Resizer Filter, Mode: Fast bilinear
+Video Plugin

[پردازش صدا]
+Pre amplification: Main: (100%)
+Auto Volume Control
+3D Effect: 5000
+Audio Plugin

[تنظيمات زيرنويس]
+Draw Mode(Selected): VMR
+Draw Mode(In use): None
+Text Rendering Method: Rasterizer
+Support HTML Tags(SMI)

[KMPlayer]
+Version: 3.2.0.19(7,622,232, 03/27/2012 06:45:48 ق.ظ)
+libcodec.dll: (2,945,536, 02/21/2012 01:57:38 ب.ظ)
+libmplay.dll: (420,864, 02/21/2012 01:57:40 ب.ظ)
+PProcDLL.dll: 1.0.0.1(1,769,472, 02/25/2008 10:37:04 ق.ظ)
+LibDTS.dll: (178,174, 12/05/2008 12:12:20 ب.ظ)
+liba52.dll: (73,063, 12/05/2008 12:11:10 ب.ظ)
+libfaad2.dll: (335,155, 12/05/2008 12:07:06 ب.ظ)
+libmad.dll: (123,036, 12/05/2008 12:12:30 ب.ظ)
+libmpeg2.dll: (154,644, 12/05/2008 12:12:42 ب.ظ)
+theora.dll: (200,864, 12/05/2008 12:13:32 ب.ظ)
+OggVorbis.dll: (1,165,312, 02/25/2008 10:37:00 ق.ظ)
+xviddll.dll: (758,319, 12/05/2008 12:28:36 ب.ظ)
+Old_QUARTZ.DLL: 6.01.05.0319(770,048, 02/25/2008 10:37:00 ق.ظ)
+AboutDll.dll: (105,472, 10/03/2005 09:42:18 ق.ظ)
+DTView.dll: (98,304, 02/21/2012 01:57:36 ب.ظ)
+ImLoader.dll: (856,064, 02/25/2008 10:35:22 ق.ظ)
+MediaInfo.dll: 0.7.53.0(3,012,720, 03/12/2012 05:57:42 ق.ظ)
+KMPAlbumArt.dll: 2009, 1, 5, 0(2,400,256, 01/05/2009 11:03:48 ب.ظ)
+logo\KMP_Album_Art.swf: (1,159,717, 03/19/2012 04:12:00 ق.ظ)


--------------------
[اطلاعات فايل]
--------------------
D:\VIDEO\123456789\ORDO\ordo tehran (1).3gp
General
Complete name : D:\VIDEO\123456789\ORDO\ordo tehran (1).3gp
Format : MPEG-4
Format profile : 3GPP Media Release 5
Codec ID : 3gp5
File size : 293 KiB
Duration : 30s 0ms
Overall bit rate : 79.9 Kbps
Encoded date : UTC 2009-11-06 13:03:35
Tagged date : UTC 2009-11-06 13:03:35
Video #1
ID : 1
Format : H.263
Format profile : BaseLine@1.0
Codec ID : s263
Duration : 29s 776ms
Bit rate mode : Variable
Bit rate : 66.9 Kbps
Width : 176 pixels
Height : 144 pixels
Display aspect ratio : 1.222
Frame rate mode : Variable
Frame rate : 9.807 fps
Minimum frame rate : 1.543 fps
Maximum frame rate : 10.417 fps
Compression mode : Lossy
Bits/(Pixel*Frame) : 0.269
Stream size : 243 KiB (83%)
Writing library : EMP
Language : Japanese
Encoded date : UTC 2009-11-06 13:03:35
Tagged date : UTC 2009-11-06 13:03:35
Audio #2
ID : 2
Format : AMR
Format/Info : Adaptive Multi-Rate
Format profile : Narrow band
Codec ID : samr
Duration : 30s 0ms
Bit rate mode : Constant
Bit rate : 12.8 Kbps
Channel(s) : 1 channel
Sampling rate : 8 000 Hz
Bit depth : 13 bits
Stream size : 46.9 KiB (16%)
Writing library : EMP
Language : Japanese
Encoded date : UTC 2009-11-06 13:03:35
Tagged date : UTC 2009-11-06 13:03:35


--------------------
[اطلاعات سيستم]
--------------------
CPU 0: 2793MHz, Intel(R) Core(TM)2 Duo CPU T9600 @ 2.80GHz, Intel64 Family 6 Model 23 Stepping 10
CPU 1: 2793MHz, Intel(R) Core(TM)2 Duo CPU T9600 @ 2.80GHz, Intel64 Family 6 Model 23 Stepping 10
OS: Windows NT Professional(Version 6.1 Build 7601) Service Pack 1
Video: ATI Mobility Radeon HD 4570

DirectX: 9.0c(4.09.00.0904)
Memory: All: 4,158,312 KB, Available: 2,829,796 KB, Used: 32%
CodePage: 1256, Charset:1
Instruction: MMX MMX2 SSE SSE2 SSE3 64Bits

[System Process]
System
smss.exe
csrss.exe
wininit.exe
csrss.exe
services.exe
winlogon.exe
lsass.exe
lsm.exe
svchost.exe
svchost.exe
atiesrxx.exe
svchost.exe
svchost.exe
svchost.exe
svchost.exe
svchost.exe
atieclxx.exe
spoolsv.exe
svchost.exe
btwdins.exe
ekrn.exe
taskhost.exe
dwm.exe
explorer.exe
svchost.exe
GuardMailRu.exe
GuardMailRu.exe
openvpnas.exe
hsssrv.exe
hsswd.exe
PandoraService.exe
egui.exe
SynTPEnh.exe
sidebar.exe
IDMan.exe
SkyMonk.exe
BTTray.exe
MOM.exe
SearchIndexer.exe
IEMonitor.exe
svchost.exe
SynTPHelper.exe
CCC.exe
openvpntray.exe
NASvc.exe
svchost.exe
svchost.exe
BTStackServer.exe
wmpnetwk.exe
BluetoothHeadsetProxy.exe
svchost.exe
firefox.exe
FlashUtil32_11_3_300_257_ActiveX.exe
notepad.exe
KMPlayer.exe
audiodg.exe
New Member
 
Join Date:  Dec 2011
Posts:  6
#10 | Link | ‫مشکله حل نشده در اجرای amr-3gp-mpg, Posted 07-05-2012 Quote
سلام آقا مهدی مشکل من حل نشده. اگه ممکنه پیام قبلیم رو دوباره بررسی کنید
Thread Tools
Display Modes
Posting Rules
You may not post new threads
You may not post replies
You may not post attachments
You may not edit your posts

vB code is On
Smilies are On
[IMG] code is On
HTML code is Off
Supported by PANDORA.TV
All times are GMT +9. The time now is 07:25 AM.
Contact Us - The KMPlayer - Archive - Top